Ссылка на приватное зеркало всего за 1$. Внимание количество ограничено!!!

OK

1+1

iTunes

мы

OK

1

WEB-DLRip

Джокер

Пифагор

Ведьмак / The Witcher сериал

iTunes

ПШазам

ОК

Оно 2

iTunes

30
pack

Вам бонус

ВАЖНО

!!Акция!!

Alien_RageХит недели

RePack

Resident Evil 21

ИГРА 18+

pack

RePack

jed

RePack

fifa19

RePack

Assassins Creed: Odyssey

RePack

NEED FOR SPEED™ PAYBACK

4 сезон

9 сезон

Бесстыжие 9 сезон

Все сериалы

все сериалы на PB.wtf

RePack

FAR CRY 5
  

Мимикрия / Jangsanbeom / The Mimic (Хо Джон) [2017, ужасы, триллер, BDRip 720p] MVO ["Синема УС"] pb.wtf

Мимикрия через торрент pb.wtf

Размер: 4.73 GB | Добавлен: 1 год 4 мес. назад | Торрент скачан:31 раз
Скачать  

29-08-2018 21:08 Мимикрия Скачать торрент  

Мимикрия / Jangsanbeom / The MimicГод выпуска: 2017
Страна: Южная Корея
Жанр: ужасы, триллер
Продолжительность: 01:43:51
Перевод: Любительский (многоголосый) | "Синема УС"
Субтитры: отсутствуют

Режиссер: Хо Джон

rating

В ролях:

Ём Джон-а, Пак Хёк-квон, Хо Джин, Щин Рин-а, Пан Ю-соль, Ли Джун-хёк, Киль Хэ-ён, Ли Юль, Ли Джу-вон, Но Сусанна

Описание:

По древнему поверью на горе Чан живёт тигр, который может изображать человеческий голос, чтобы приманивать людей.

Хи-ён с мужем и дочерью переезжают в отдалённо стоящий дом, где раньше жила их бабушка. Несколько лет назад семья потеряла сына - мальчик пропал, и так до сих пор не ясно, жив ли он, но Хи-ён не теряет надежды. Во время странного происшествия в лесу женщина встречает маленькую девочку, почти ровесницу своей дочери, и когда та позже приходит к ним в дом, безутешная мать не может не принять ребёнка, считая, что кто-то так же мог помочь их сыну. Девочка оказывается странной - сначала молчит, а потом вдруг заговаривает голосом их дочери.

Качество: BDRip 720p
Формат: MKV

Видео: h.264, 6 070 kb/s, 1280x688
Аудио#1: Русский (AC3, 2 ch, 448 Кбит/с)
скриншот  скриншот  скриншот  

Общее
Уникальный идентификатор : 238179361402718357884511183480030175493 (0xB32FAD2A41FD8736A31E7A4846AF2105)
Полное имя : D:\The.Mimic.2O17.P.BDRip.72Op_KOSHARA.mkv
Формат : Matroska
Версия формата : Version 2
Размер файла : 4,73 Гбайт
Продолжительность : 1 ч. 43 м.
Режим общего битрейта : Переменный
Общий поток : 6520 Кбит/сек
Дата кодирования : UTC 2018-08-29 12:47:06
Программа кодирования : mkvmerge v8.3.0 ('Over the Horizon') 64bit
Библиотека кодирования : libebml v1.3.1 + libmatroska v1.4.2

Видео
Идентификатор : 1
Формат : AVC
Формат/Информация : Advanced Video Codec
Профиль формата : High@L4.1
Параметр CABAC формата : Да
Параметр RefFrames формата : 4 кадра
Идентификатор кодека : V_MPEG4/ISO/AVC
Продолжительность : 1 ч. 43 м.
Вид битрейта : Переменный
Битрейт : 6070 Кбит/сек
Максимальный битрейт : 6900 Кбит/сек
Ширина : 1280 пикселей
Высота : 688 пикселей
Соотношение сторон : 1,85:1
Режим частоты кадров : Постоянный
Частота кадров : 23,976 (24000/1001) кадра/сек
Стандарт вещания : Component
Цветовое пространство : YUV
Субдискретизация насыщенности : 4:2:0
Битовая глубина : 8 бит
Тип развёртки : Прогрессивная
Бит/(Пиксели*Кадры) : 0.281
Размер потока : 4,31 Гбайт (91%)
Default : Да
Forced : Нет
Цветовой диапазон : Limited
Основные цвета : BT.709
Характеристики трансфера : BT.709
Коэффициенты матрицы : BT.709

Аудио
Идентификатор : 2
Формат : AC-3
Формат/Информация : Audio Coding 3
Расширение режима : CM (complete main)
Параметр Endianness формата : Big
Идентификатор кодека : A_AC3
Продолжительность : 1 ч. 43 м.
Вид битрейта : Постоянный
Битрейт : 448 Кбит/сек
Каналы : 2 канала
Расположение каналов : Front: L R
Частота : 48,0 КГц
Частота кадров : 31,250 кадров/сек (1536 spf)
Метод сжатия : С потерями
Размер потока : 333 Мбайт (7%)
Default : Да
Forced : Нет

pb.wtf



Скачать Мимикрия через торрент http://img11.lostpic.net/2018/08/29/feff8bd41f5f17394790063ea58e4a35.jpg Скачать фильм Мимикрия через торрент бесплантно в хорошем качестве Описание: По древнему поверью на горе Чан живёт тигр, который может изображать человеческий голос, чтобы приманивать людей. Хи-ён с мужем и ... 10 10 2
Торрент: Зарегистрирован [2018-08-29 21:08] · скачан: 31 раз
Статус: # сомнительно
Размер: 4.73 GB
Как cкачать? Как скачать Мимикрия через торрент | qTorrent

% Раздел Тема Автор DL S | L
T Фильмы (мультфильмы) cо спонсором показа (Новинки AVI/MKV) [ 1.37 GB ] Мимикрия / Jangsanbeom / The Mimic [2017 HDRip] MVO ["Синема УС"] bober100 Скачать
1 | 0

28-11-2019 20:33  

Отключить всю рекламу на сайте

    Дорогой пользователь! Огромная просьба, поблагодарите релизера, оцените раздачу и оставьте свои комментарий, если Вы скачали Мимикрия через торрент бесплатно! Внесите свою лепту в развитие PiratBit!
    Комментировать посты могут только пользователи прошедшие не сложную регистрацию
    Показать сообщения:    

    Мимикрия через торрент
    Скачать бесплатно Мимикрия
    Мимикрия скачать торрент
    Мимикрия смотреть онлайн
    Cкачать фильм Мимикрия бесплатно
    Мимикрия скачать торрент в хорошем качестве
    Мимикрия смотреть онлайн бесплатно в хорошем качестве


    Вы не можете начинать темы
    Вы не можете отвечать на сообщения
    Вы не можете редактировать свои сообщения
    Вы не можете удалять свои сообщения
    Вы не можете голосовать в опросах
    Вы не можете прикреплять файлы к сообщениям
    Вы можете скачивать файлы