Ссылка на приватное зеркало всего за 1$. Внимание количество ограничено!!!

OK

1+1

iTunes

мы

OK

1

WEB-DLRip

Джокер

Пифагор

Ведьмак / The Witcher сериал

Лицензия

ПШазам

ОК

Оно 2

iTunes

30
pack

Вам бонус

ВАЖНО

!!Акция!!

Alien_RageХит недели

RePack

Resident Evil 21

ИГРА 18+

pack

RePack

jed

RePack

fifa19

RePack

Assassins Creed: Odyssey

RePack

NEED FOR SPEED™ PAYBACK

4 сезон

9 сезон

Бесстыжие 9 сезон

Все сериалы

все сериалы на PB.wtf

RePack

FAR CRY 5
  

Лагерь "Манна" / Camp Manna (Эрик Скотт Джонсон, Эрик Мачиэла) [2018, комедия, WEB-DL 720p] MVO ["Синема УС"] pb.wtf

Лагерь "Манна" через торрент pb.wtf

Размер: 3.21 GB | Добавлен: 1 год 4 мес. назад | Торрент скачан:37 раз
Скачать  

29-08-2018 21:31 Лагерь "Манна" Скачать торрент  

Лагерь "Манна" / Camp MannaГод выпуска: 2018
Страна: США
Жанр: комедия
Продолжительность: 01:34:26
Перевод: Любительский (многоголосый) | "Синема УС"
Субтитры: отсутствуют

Режиссер: Эрик Скотт Джонсон, Эрик Мачиэла

rating

В ролях:

Гэри Бьюзи, Джимми Татро, Джои Морган, Паулина Ольшински, Бретт Джонсон, Джеки Мэйли Мейсон, Раммел Чан, Саманта Сержант, Кевин Йон, Дерек Брайан Демкович

Описание:

Ян Флетчер, «неверующий», отправляется в христианский лагерь, где он вынужден участвовать в библейской тематической олимпиаде, известной как «Игры Бога».

Качество: WEB-DL 720p
Формат: MKV

Видео: h.264, 4 487 kb/s, 1280x720
Аудио#1: Русский, (AC3, 2 ch, 384 Кбит/с)
скриншот  скриншот  скриншот  

Общее
Уникальный идентификатор : 195519492962331622837461875860420849123 (0x9317AF434E4EDAF5A35A4E930C6A6DE3)
Полное имя : D:\Camp.Manna.2018.P.WEB-DL.72Op_KOSHARA.mkv
Формат : Matroska
Версия формата : Version 2
Размер файла : 3,21 Гбайт
Продолжительность : 1 ч. 34 м.
Режим общего битрейта : Переменный
Общий поток : 4873 Кбит/сек
Дата кодирования : UTC 2018-08-29 12:51:11
Программа кодирования : mkvmerge v8.3.0 ('Over the Horizon') 64bit
Библиотека кодирования : libebml v1.3.1 + libmatroska v1.4.2

Видео
Идентификатор : 1
Формат : AVC
Формат/Информация : Advanced Video Codec
Профиль формата : High@L4.1
Параметр CABAC формата : Да
Параметр RefFrames формата : 4 кадра
Идентификатор кодека : V_MPEG4/ISO/AVC
Продолжительность : 1 ч. 34 м.
Вид битрейта : Переменный
Битрейт : 4487 Кбит/сек
Максимальный битрейт : 5000 Кбит/сек
Ширина : 1280 пикселей
Высота : 720 пикселей
Соотношение сторон : 16:9
Режим частоты кадров : Постоянный
Частота кадров : 23,976 (24000/1001) кадра/сек
Стандарт вещания : Component
Цветовое пространство : YUV
Субдискретизация насыщенности : 4:2:0
Битовая глубина : 8 бит
Тип развёртки : Прогрессивная
Бит/(Пиксели*Кадры) : 0.199
Размер потока : 2,90 Гбайт (90%)
Default : Да
Forced : Нет
Цветовой диапазон : Limited
Основные цвета : BT.709
Характеристики трансфера : BT.709
Коэффициенты матрицы : BT.709

Аудио
Идентификатор : 2
Формат : AC-3
Формат/Информация : Audio Coding 3
Расширение режима : CM (complete main)
Параметр Endianness формата : Big
Идентификатор кодека : A_AC3
Продолжительность : 1 ч. 34 м.
Вид битрейта : Постоянный
Битрейт : 384 Кбит/сек
Каналы : 2 канала
Расположение каналов : Front: L R
Частота : 48,0 КГц
Частота кадров : 31,250 кадров/сек (1536 spf)
Метод сжатия : С потерями
Размер потока : 259 Мбайт (8%)
Default : Да
Forced : Нет

pb.wtf



Скачать Лагерь "Манна" через торрент http://img11.lostpic.net/2018/08/30/93de08db263506eacb4600bcb322ed3b.jpg Скачать фильм Лагерь "Манна" через торрент бесплантно в хорошем качестве Описание: Ян Флетчер, «неверующий», отправляется в христианский лагерь, где он вынужден участвовать в библейской тематической олимпиаде, ... 10 10 2
Торрент: Зарегистрирован [2018-08-29 21:31] · скачан: 37 раз
Статус: T временная
Размер: 3.21 GB
Как cкачать? Как скачать Лагерь "Манна" через торрент | qTorrent

28-11-2019 20:33  

Отключить всю рекламу на сайте

    Дорогой пользователь! Огромная просьба, поблагодарите релизера, оцените раздачу и оставьте свои комментарий, если Вы скачали Лагерь "Манна" через торрент бесплатно! Внесите свою лепту в развитие PiratBit!
    Комментировать посты могут только пользователи прошедшие не сложную регистрацию
    Показать сообщения:    

    Лагерь "Манна" через торрент
    Скачать бесплатно Лагерь "Манна"
    Лагерь "Манна" скачать торрент
    Лагерь "Манна" смотреть онлайн
    Cкачать фильм Лагерь "Манна" бесплатно
    Лагерь "Манна" скачать торрент в хорошем качестве
    Лагерь "Манна" смотреть онлайн бесплатно в хорошем качестве


    Вы не можете начинать темы
    Вы не можете отвечать на сообщения
    Вы не можете редактировать свои сообщения
    Вы не можете удалять свои сообщения
    Вы не можете голосовать в опросах
    Вы не можете прикреплять файлы к сообщениям
    Вы можете скачивать файлы