Ссылка на приватное зеркало всего за 1$. Внимание количество ограничено!!!

OK

1+1

iTunes

мы

OK

1

WEB-DLRip

Джокер

Пифагор

Ведьмак / The Witcher сериал

iTunes

ПШазам

ОК

Оно 2

iTunes

30
pack

Вам бонус

ВАЖНО

!!Акция!!

Alien_RageХит недели

RePack

Resident Evil 21

ИГРА 18+

pack

RePack

jed

RePack

fifa19

RePack

Assassins Creed: Odyssey

RePack

NEED FOR SPEED™ PAYBACK

4 сезон

9 сезон

Бесстыжие 9 сезон

Все сериалы

все сериалы на PB.wtf

RePack

FAR CRY 5
  

50 весенних дней / Aurore (Бландин Ленуар) [2017, драма, комедия, BDRip 720p] MVO [официальный звук] pb.wtf

50 весенних дней через торрент pb.wtf

Размер: 4.31 GB | Добавлен: 1 год 4 мес. назад | Торрент скачан:36 раз
Скачать  

30-08-2018 11:58 50 весенних дней Скачать торрент  

50 весенних дней / AuroreГод выпуска: 2017
Страна: Франция
Жанр: драма, комедия
Продолжительность: 01:33:14
Перевод: Профессиональный многоголосый | официальный звук
Субтитры: отсутствуют

Режиссер: Бландин Ленуар

rating

В ролях:

Аньес Жауи, Тибо де Монталембер, Паскаль Арбийо, Сара Суко, Лу Рой-Лекколлин, Николас Чупин, Рэйчел Фарман, Лори Бордесуль, Джульетта Вье-Пецкате, Арманд Поль Жан

Описание:

В одном живописном французском городке живет Аврора, у нее две взрослые дочери и одна верная подруга, и Аврора их очень любит. Чего она не любит, так это перемены: когда Аврора теряет работу и узнает, что скоро станет молодой бабушкой, то воспринимает это как намек - мир захватила юность, и ей тут уже не место. К счастью, у Авроры появляется идеальный повод начать жизнь с чистого листа, и даже убедить всех, что лучшее начинается сейчас!

Качество: BDRip 720p
Формат: MKV

Видео: h.264,6 167 kb/s, 1280x692
Аудио#1: Русский, (AC3, 2 ch, 448 Кбит/с)
скриншот  скриншот  скриншот  

Общее
Уникальный идентификатор : 239494931712634299079697965203673324468 (0xB42D0BCA06DA5F74A296993C05441BB4)
Полное имя : D:\Aurore.2O17.Pof.BDRip.72Op_KOSHARA.mkv
Формат : Matroska
Версия формата : Version 2
Размер файла : 4,31 Гбайт
Продолжительность : 1 ч. 33 м.
Режим общего битрейта : Переменный
Общий поток : 6617 Кбит/сек
Дата кодирования : UTC 2018-08-29 11:04:43
Программа кодирования : mkvmerge v8.3.0 ('Over the Horizon') 64bit
Библиотека кодирования : libebml v1.3.1 + libmatroska v1.4.2

Видео
Идентификатор : 1
Формат : AVC
Формат/Информация : Advanced Video Codec
Профиль формата : High@L4.1
Параметр CABAC формата : Да
Параметр RefFrames формата : 4 кадра
Идентификатор кодека : V_MPEG4/ISO/AVC
Продолжительность : 1 ч. 33 м.
Вид битрейта : Переменный
Битрейт : 6167 Кбит/сек
Максимальный битрейт : 7000 Кбит/сек
Ширина : 1280 пикселей
Высота : 692 пикселя
Соотношение сторон : 1,85:1
Режим частоты кадров : Постоянный
Частота кадров : 23,976 (24000/1001) кадра/сек
Стандарт вещания : Component
Цветовое пространство : YUV
Субдискретизация насыщенности : 4:2:0
Битовая глубина : 8 бит
Тип развёртки : Прогрессивная
Бит/(Пиксели*Кадры) : 0.284
Размер потока : 3,93 Гбайт (91%)
Default : Да
Forced : Нет
Цветовой диапазон : Limited
Основные цвета : BT.709
Характеристики трансфера : BT.709
Коэффициенты матрицы : BT.709

Аудио
Идентификатор : 2
Формат : AC-3
Формат/Информация : Audio Coding 3
Расширение режима : CM (complete main)
Параметр Endianness формата : Big
Идентификатор кодека : A_AC3
Продолжительность : 1 ч. 33 м.
Вид битрейта : Постоянный
Битрейт : 448 Кбит/сек
Каналы : 2 канала
Расположение каналов : Front: L R
Частота : 48,0 КГц
Частота кадров : 31,250 кадров/сек (1536 spf)
Метод сжатия : С потерями
Размер потока : 299 Мбайт (7%)
Default : Да
Forced : Нет

pb.wtf



Скачать 50 весенних дней через торрент http://img11.lostpic.net/2018/08/30/fc64836527cc082210882d8e8151f86a.jpg Скачать фильм 50 весенних дней через торрент бесплантно в хорошем качестве Описание: В одном живописном французском городке живет Аврора, у нее две взрослые дочери и одна верная подруга, и Аврора их очень любит. ... 10 10 2
Торрент: Зарегистрирован [2018-08-30 11:58] · скачан: 36 раз
Статус: # сомнительно
Размер: 4.31 GB
Как cкачать? Как скачать 50 весенних дней через торрент | qTorrent

% Раздел Тема Автор DL S | L
T Релизы по Парсеру [Игры, Сериалы и Фильмы и другое...] [ 1.37 GB ] 50 весенних дней / Aurore [2017 WEB-DLRip] [MVO] [официальный звук] killermax2013 Скачать
1 | 0
T Фильмы (мультфильмы) cо спонсором показа (Новинки AVI/MKV) [ 1.37 GB ] 50 весенних дней / Aurore [2017 HDRip] MVO [официальный звук] bober100 Скачать
1 | 0

28-11-2019 20:33  

Отключить всю рекламу на сайте

    Дорогой пользователь! Огромная просьба, поблагодарите релизера, оцените раздачу и оставьте свои комментарий, если Вы скачали 50 весенних дней через торрент бесплатно! Внесите свою лепту в развитие PiratBit!
    Комментировать посты могут только пользователи прошедшие не сложную регистрацию
    Показать сообщения:    

    50 весенних дней через торрент
    Скачать бесплатно 50 весенних дней
    50 весенних дней скачать торрент
    50 весенних дней смотреть онлайн
    Cкачать фильм 50 весенних дней бесплатно
    50 весенних дней скачать торрент в хорошем качестве
    50 весенних дней смотреть онлайн бесплатно в хорошем качестве


    Вы не можете начинать темы
    Вы не можете отвечать на сообщения
    Вы не можете редактировать свои сообщения
    Вы не можете удалять свои сообщения
    Вы не можете голосовать в опросах
    Вы не можете прикреплять файлы к сообщениям
    Вы можете скачивать файлы