Ссылка на приватное зеркало нашего сайта всего за 1$. Внимание количество ограничено!!!

2 сезон

iTunes

1 сезон

1

2 сезон

2 сезон

iTunes

1 сезон

RePack

30

Новинка

ВАЖНО

ИГРА 18+

pack

RePack

MK11
pack

Забери бонус

RePack

jed

!!Акция!!

Alien_Rage

RePack

fifa19

RePack

Assassins Creed: Odyssey

RePack

NEED FOR SPEED™ PAYBACK

4 сезон

9 сезон

Бесстыжие 9 сезон

Все сериалы

все сериалы на PB.wtf

RePack

FAR CRY 5
  

Сакральные игры / Sacred Games / Сезон: 1 / Серии: 1-8 из 8 (Анураг Кашьяп, Викрамадитья Мотване) [2018, Драма, криминал, WEB-DLRip] MVO [Newstudio] pb.wtf

Сакральные игры через торрент pb.wtf

Размер: 7.77 GB | Добавлен: 2 года 3 мес. назад | Торрент скачан:37 раз
Скачать  

30-08-2018 13:00 Сакральные игры Скачать торрент  

Сакральные игры / Sacred Games

Год выпуска: 2018
Страна: Индия, США
Жанр: Драма, криминал, детектив, триллер
Продолжительность: ~00:50:00
Перевод: Профессиональный (многоголосый закадровый) |
Субтитры: нет

Режиссёр: Анураг Кашьяп, Викрамадитья Мотване

В ролях:

Навазуддин Сиддикуи, Саиф Али Кхан, Нааз Норози, Анупурия Гоенка, Радхика Апте, Амир Башир, Раджшри Дешпанде, Гириш Диксит, Нирадж Каби, Люк Кенни

Описание:

Современный Мумбаи погряз в коррупции и преступности, и честному человеку там места нет. Полицейский низкого ранга Сартадж Синкх страдает под грузом прошлого и от невыносимости настоящего, когда вдруг получает звонок от одного из самых разыскиваемых преступников Индии. Тот сообщает, что является бессмертным богом, а у Сартаджа есть шанс спасти Мумбаи, которому через 25 дней настанет конец.



Качество: WEB-DLRip
Формат: AVI

Видео: XviD, 704x352, 25 fps, ~2000 kbps
Аудио #1: 48 kHz, AC3 Dolby Digital, 3/2 (L,C,R,l,r) + LFE ch, ~384 kbps | Rus
Аудио #2: 48 kHz, AC3 Dolby Digital, 3/2 (L,C,R,l,r) + LFE ch, ~384 kbps | Hindi
Format : AVI
Format/Info : Audio Video Interleave
File size : 1.03 GiB
Duration : 51 min 18 s
Overall bit rate : 2 866 kb/s
Writing application : VirtualDubMod 1.5.10.2 (build 2540/release)
Writing library : VirtualDubMod build 2540/release

Video
ID : 0
Format : MPEG-4 Visual
Format profile : Advanced Simple@L5
Format settings : BVOP1 / Custom Matrix
Format settings, BVOP : 1
Format settings, QPel : No
Format settings, GMC : No warppoints
Format settings, Matrix : Custom
Codec ID : XVID
Codec ID/Hint : XviD
Duration : 51 min 18 s
Bit rate : 2 083 kb/s
Width : 704 pixels
Height : 352 pixels
Display aspect ratio : 2.000
Frame rate : 25.000 FPS
Color space : YUV
Chroma subsampling : 4:2:0
Bit depth : 8 bits
Scan type : Progressive
Compression mode : Lossy
Bits/(Pixel*Frame) : 0.336
Stream size : 764 MiB (73%)
Writing library : XviD 73

Audio #1
ID : 1
Format : AC-3
Format/Info : Audio Coding 3
Codec ID : 2000
Duration : 51 min 18 s
Bit rate mode : Constant
Bit rate : 384 kb/s
Channel(s) : 6 channels
Channel positions : Front: L C R, Side: L R, LFE
Sampling rate : 48.0 kHz
Frame rate : 31.250 FPS (1536 SPF)
Bit depth : 16 bits
Compression mode : Lossy
Stream size : 141 MiB (13%)
Alignment : Split accross interleaves
Interleave, duration : 40 ms (1.00 video frame)
Interleave, preload duratio : 500 ms
Service kind : Complete Main

Audio #2
ID : 2
Format : AC-3
Format/Info : Audio Coding 3
Codec ID : 2000
Duration : 51 min 18 s
Bit rate mode : Constant
Bit rate : 384 kb/s
Channel(s) : 6 channels
Channel positions : Front: L C R, Side: L R, LFE
Sampling rate : 48.0 kHz
Frame rate : 31.250 FPS (1536 SPF)
Bit depth : 16 bits
Compression mode : Lossy
Stream size : 141 MiB (13%)
Alignment : Split accross interleaves
Interleave, duration : 40 ms (1.00 video frame)
Interleave, preload duratio : 500 ms
Service kind : Complete Main
скриншот  скриншот  скриншот  скриншот  
pb.wtf



Скачать Сакральные игры через торрент http://i104.fastpic.ru/big/2018/0714/19/9dcf1f7cbcbee9120cc6fdc2c82f4119.png Скачать фильм Сакральные игры через торрент бесплантно в хорошем качестве Описание: Современный Мумбаи погряз в коррупции и преступности, и честному человеку там места нет. Полицейский низкого ранга Сартадж Синкх ... 10 10 2
Торрент: Зарегистрирован [2018-08-30 13:00] · скачан: 37 раз
Статус: √ проверено
Размер: 7.77 GB
Как cкачать? Как скачать Сакральные игры через торрент | qTorrent

% Раздел Тема Автор DL S | L
Зарубежные сериалы [ 25.83 GB ] Сакральные игры / Sacred Games / Сезон: 1 / Серии: 1-8 из 8 [2019 WEBRip 1080p] MVO [TVShows] bober100 Скачать
1 | 0
Зарубежные сериалы [ 12.62 GB ] Сакральные игры / Sacred Games / Сезон: 1 / Серии: 1-8 из 8 [2018 WEB-DL 720p] MVO [Newstudio] bober100 Скачать
1 | 0
Зарубежные сериалы [ 4.15 GB ] Сакральные игры / Sacred Games / Сезон: 1 / Серии: 1-8 из 8 [2018 WEBRip] MVO [Jaskier] bober100 Скачать
1 | 0
Зарубежные сериалы [ 5.41 GB ] Сакральные игры / Sacred Games / Сезон: 1 / Серии: 1-8 из 8 [2018 WEBRip 720p] MVO [Jaskier] bober100 Скачать
1 | 0

28-11-2019 20:33  

Отключить всю рекламу на сайте

    Дорогой пользователь! Огромная просьба, поблагодарите релизера, оцените раздачу и оставьте свои комментарий, если Вы скачали Сакральные игры через торрент бесплатно! Внесите свою лепту в развитие PiratBit!
    Комментировать посты могут только пользователи прошедшие не сложную регистрацию
    Показать сообщения:    

    Сакральные игры через торрент
    Скачать бесплатно Сакральные игры
    Сакральные игры скачать торрент
    Сакральные игры смотреть онлайн
    Cкачать фильм Сакральные игры бесплатно
    Сакральные игры скачать торрент в хорошем качестве
    Сакральные игры смотреть онлайн бесплатно в хорошем качестве


    Вы не можете начинать темы
    Вы не можете отвечать на сообщения
    Вы не можете редактировать свои сообщения
    Вы не можете удалять свои сообщения
    Вы не можете голосовать в опросах
    Вы не можете прикреплять файлы к сообщениям
    Вы можете скачивать файлы