Ссылка на приватное зеркало нашего сайта всего за 1$. Внимание количество ограничено!!!

2 сезон

iTunes

1 сезон

1

2 сезон

2 сезон

iTunes

1 сезон

RePack

30

Новинка

ВАЖНО

ИГРА 18+

pack

RePack

MK11
pack

Забери бонус

RePack

jed

!!Акция!!

Alien_Rage

RePack

fifa19

RePack

Assassins Creed: Odyssey

RePack

NEED FOR SPEED™ PAYBACK

4 сезон

9 сезон

Бесстыжие 9 сезон

Все сериалы

все сериалы на PB.wtf

RePack

FAR CRY 5
  

Джеймстаун / Jamestown / Сезон: 2 / Серии: 1-8 из 8 (Сэмюэл Донован, Пол Вильшурст, Джон Александр) [2018, драма, история, HDTVRip 720p] [MVO] (FilmsClub) pb.wtf

Джеймстаун через торрент pb.wtf

Размер: 8.41 GB | Добавлен: 2 года 3 мес. назад | Торрент скачан:27 раз
Скачать  

30-08-2018 14:16 Джеймстаун Скачать торрент  

Джеймстаун | Jamestown Год выпуска: 2018
Страна: Великобритания
Жанр: Драма, история
Продолжительность: ~ 00:59:00
Перевод: Любительский (многоголосый закадровый) | *FilmsClub*

Режиссёр: Сэмюэл Донован, Пол Вильшурст, Джон Александр

В ролях: Гвилим Ли, Наоми Баттрик, Клер Кокс, Стюарт Мартин, Юджин «Храбрый камень», Люк Роскелл, Софи Рандл и др.

Описание: Действие исторической драмы происходит в начале XVII века. Первые английские колонисты высаживаются на Американский континент, чтобы создать здесь поселения. В 1607 году был основан Джеймстаун, положивший начало освоению Нового Света.



Качество: HDTVRip 720p
Формат: MKV
Видео: AVC(High@L4.1) , 1,78:1 = 16:9, 1280x596| 2217 kbps| 25 fps
Аудио 1: AC3 , 5.1 / 48 kHz / 384 kbps / 16-bit - Rus
Аудио 2: AC3 , 5.1 / 48 kHz / 384 kbps / 16-bit - Eng
Субтитры: нет
General
Unique ID : 82540787093207482505892907505314687532 (0x3E18C700625067EEFCE88337C413EA2C)
Complete name : E:\Jamestown.S02.720p.films.club\Jamestown.S02E01.720p.Hdtv.X264-films.club.mkv
Format : Matroska
Format version : Version 4 / Version 2
File size : 1.02 GiB
Duration : 48 min 39 s
Overall bit rate : 2 987 kb/s
Encoded date : UTC 2018-08-01 18:19:28
Writing application : mkvmerge v24.0.0 ('Beyond The Pale') 64-bit
Writing library : libebml v1.3.6 + libmatroska v1.4.9

Video
ID : 1
Format : AVC
Format/Info : Advanced Video Codec
Format profile : High@L4.1
Format settings : CABAC / 5 Ref Frames
Format settings, CABAC : Yes
Format settings, RefFrames : 5 frames
Codec ID : V_MPEG4/ISO/AVC
Duration : 48 min 39 s
Bit rate : 2 160 kb/s
Width : 1 280 pixels
Height : 596 pixels
Display aspect ratio : 2.148
Frame rate mode : Constant
Frame rate : 25.000 FPS
Color space : YUV
Chroma subsampling : 4:2:0
Bit depth : 8 bits
Scan type : Progressive
Bits/(Pixel*Frame) : 0.113
Stream size : 752 MiB (72%)
Writing library : x264 core 155 r2901 7d0ff22
Encoding settings : cabac=1 / ref=5 / deblock=1:0:0 / analyse=0x3:0x113 / me=hex / subme=8 / psy=1 / psy_rd=1.00:0.00 / mixed_ref=1 / me_range=16 / chroma_me=1 / trellis=2 / 8x8dct=1 / cqm=0 / deadzone=21,11 / fast_pskip=1 / chroma_qp_offset=-2 / threads=12 / lookahead_threads=2 / sliced_threads=0 / nr=0 / decimate=1 / interlaced=0 / bluray_compat=0 / constrained_intra=0 / bframes=3 / b_pyramid=2 / b_adapt=1 / b_bias=0 / direct=3 / weightb=1 / open_gop=0 / weightp=2 / keyint=250 / keyint_min=25 / scenecut=40 / intra_refresh=0 / rc_lookahead=50 / rc=crf / mbtree=1 / crf=18.0 / qcomp=0.60 / qpmin=0 / qpmax=69 / qpstep=4 / ip_ratio=1.40 / aq=1:1.00
Default : Yes
Forced : No
Color range : Limited
Matrix coefficients : BT.709

Audio #1
ID : 2
Format : AC-3
Format/Info : Audio Coding 3
Format settings, Endianness : Big
Codec ID : A_AC3
Duration : 48 min 39 s
Bit rate mode : Constant
Bit rate : 384 kb/s
Channel(s) : 6 channels
Channel positions : Front: L C R, Side: L R, LFE
Sampling rate : 48.0 kHz
Frame rate : 31.250 FPS (1536 SPF)
Bit depth : 16 bits
Compression mode : Lossy
Stream size : 134 MiB (13%)
Title : films.club
Language : Russian
Service kind : Complete Main
Default : Yes
Forced : No

Audio #2
ID : 3
Format : AC-3
Format/Info : Audio Coding 3
Format settings, Endianness : Big
Codec ID : A_AC3
Duration : 48 min 39 s
Bit rate mode : Constant
Bit rate : 384 kb/s
Channel(s) : 6 channels
Channel positions : Front: L C R, Side: L R, LFE
Sampling rate : 48.0 kHz
Frame rate : 31.250 FPS (1536 SPF)
Bit depth : 16 bits
Compression mode : Lossy
Stream size : 134 MiB (13%)
Language : English
Service kind : Complete Main
Default : No
Forced : No
скриншот  скриншот  скриншот  
pb.wtf



Скачать Джеймстаун через торрент https://i102.fastpic.ru/big/2018/0830/39/603dd426e8df0a7c5ae0b59c659fc739.jpg Скачать фильм Джеймстаун через торрент бесплантно в хорошем качестве Описание: Действие исторической драмы происходит в начале XVII века. Первые английские колонисты высаживаются на Американский континент, ... 10 10 2
Info! Золотая раздача, скачанное не засчитывается.
Торрент: Зарегистрирован [2018-08-30 14:16] · скачан: 27 раз
Статус: √ проверено
Размер: 8.41 GB
Как cкачать? Как скачать Джеймстаун через торрент | qTorrent

28-11-2019 20:33  

Отключить всю рекламу на сайте

    Дорогой пользователь! Огромная просьба, поблагодарите релизера, оцените раздачу и оставьте свои комментарий, если Вы скачали Джеймстаун через торрент бесплатно! Внесите свою лепту в развитие PiratBit!
    Комментировать посты могут только пользователи прошедшие не сложную регистрацию
    Показать сообщения:    

    Джеймстаун через торрент
    Скачать бесплатно Джеймстаун
    Джеймстаун скачать торрент
    Джеймстаун смотреть онлайн
    Cкачать фильм Джеймстаун бесплатно
    Джеймстаун скачать торрент в хорошем качестве
    Джеймстаун смотреть онлайн бесплатно в хорошем качестве


    Вы не можете начинать темы
    Вы не можете отвечать на сообщения
    Вы не можете редактировать свои сообщения
    Вы не можете удалять свои сообщения
    Вы не можете голосовать в опросах
    Вы не можете прикреплять файлы к сообщениям
    Вы можете скачивать файлы