новый адрес
Ссылка на приватное зеркало всего за 1$. Внимание количество ограничено!!!

iTunes

1+1

iTunes

мы

WEB-DL

1

iTunes

Чернобыль

iTunes

Ральф против интернета

Лицензия

ПШазам

Лицензия

Оно 2

Лицензия

30
pack

Вам бонус

ВАЖНО

!!Акция!!

Alien_RageХит недели

RePack

Resident Evil 21

ИГРА 18+

pack

RePack

jed

!!Акция!!

Alien_Rage

RePack

fifa19

RePack

Assassins Creed: Odyssey

RePack

NEED FOR SPEED™ PAYBACK

3 сезон

9 сезон

Бесстыжие 9 сезон

Все сериалы

все сериалы на PB.wtf

RePack

FAR CRY 5
Ребята, катастрофически не хватает 1900р. для оплаты серверов за Октябрь (всвязи с блокировками трафик упал в 3 раза), 1-2р., выручайте.
  

Кодекс Готти / Gotti (Кевин Коннолли / Kevin Connolly) [2018, драма, криминал, биография, BDRip-AVC] [Dub] [iTunes] pb.wtf

Кодекс Готти через торрент pb.wtf

Размер: 2.71 GB | Добавлен: 1 год 3 мес. назад | Торрент скачан:230 раз
Скачать  

30-08-2018 16:39 Кодекс Готти Скачать торрент  

Кодекс Готти / Gotti
«Правдивая история крёстного отца Америки»
Год выхода: 2018
Выпущено: Канада, США / Fiore Films
Жанр: драма, криминал, биография
Продолжительность: 01:49:34
Перевод: Профессиональный (полное дублирование) [iTunes]

Субтитры: Английские (полные)

Навигация по главам: Есть (11 глав)

Режиссер: Кевин Коннолли / Kevin ConnollyВ ролях:
Джон Траволта, Келли Престон, Стейси Кич, Спенсер Лофранко, Прюитт Тейлор Винс, Эшли Кусато, Лидия Халл, Уильям ДеМео, Крис Малки, Лео Росси

О фильме:
Джон Готти начинал свою криминальную карьеру, выполняя самые простые поручения. Позже он по праву стал ключевым человеком в криминальном мире. Его семья является самой влиятельной и богатой в Нью-Йорке, финансовое благополучие и Влacть ставится выше моральных аспектов. Однажды дело Готти должно быть передано наследнику, однако неожиданно отец сталкивается с отказом сына иметь причастность к миру криминала. Но как поступит Готти-младший, когда над его семьёй нависнет угроза?

Сэмпл |

Качество: BDRip-AVC [Gotti.2018.1080p.BluRay.AVC.DTS-HD.MA.5.1-FGT]
Формат: MKV
Видео: 1152x482 (2,40:1), 23.976 fps, x264 ~2632 kbps avg, 0.198 bit/pixel
Аудио #1: 48 kHz, AC3 Dolby Digital, 3/2 (L,C,R,l,r) + LFE ch, ~384.00 kbps avg (RUS) - iTunes Russia
Аудио #2: 48 kHz, AC3 Dolby Digital, 3/2 (L,C,R,l,r) + LFE ch, ~448.00 kbps avg (ENG)
Формат субтитров: Softsub (.srt*)
скриншот  скриншот  скриншот  
Общее
Полное имя                               : D:\Kodeks_Gotti_2018_BDRip-AVC_iT_by_Dalemake.mkv
Формат                                   : Matroska
Версия формата                           : Version 4 / Version 2
Размер файла                             : 2,71 Гбайт
Продолжительность                        : 1 ч. 49 м.
Общий поток                              : 3535 Кбит/сек
Название фильма                          : [Gotti_2018_All Films_by Dalemake]
Дата кодирования                         : UTC 2018-08-30 16:07:18
Программа кодирования                    : mkvmerge v7.8.0 ('River Man') 32bit built on Apr  3 2015 12:11:22
Библиотека кодирования                   : libebml v1.3.1 + libmatroska v1.4.2
DURATION                                 : 01:49:34.048000000
NUMBER_OF_FRAMES                         : 205439
NUMBER_OF_BYTES                          : 315554304
_STATISTICS_WRITING_APP                  : mkvmerge v7.8.0 ('River Man') 32bit built on Apr  3 2015 12:11:22
_STATISTICS_WRITING_DATE_UTC             : 2018-08-30 16:07:18
_STATISTICS_TAGS                         : BPS DURATION NUMBER_OF_FRAMES NUMBER_OF_BYTES

Видео
Идентификатор                            : 1
Формат                                   : AVC
Формат/Информация                        : Advanced Video Codec
Профиль формата                          : High@L4.1
Параметр CABAC формата                   : Да
Параметр ReFrames формата                : 12 кадров
Идентификатор кодека                     : V_MPEG4/ISO/AVC
Продолжительность                        : 1 ч. 49 м.
Битрейт                                  : 2632 Кбит/сек
Ширина                                   : 1152 пикселя
Высота                                   : 482 пикселя
Соотношение сторон                       : 2,40:1
Частота кадров                           : 23,976 кадра/сек
Цветовое пространство                    : YUV
Субдискретизация насыщенности            : 4:2:0
Битовая глубина                          : 8 бит
Тип развёртки                            : Прогрессивная
Бит/(Пиксели*Кадры)                      : 0.198
Размер потока                            : 2,01 Гбайт (74%)
Заголовок                                : [Gotti_2018_All Films_by Dalemake]
Библиотека кодирования                   : x264 core 152 r2851kMod ba24899
Настройки программы                      : cabac=1 / ref=12 / deblock=1:-3:-2 / analyse=0x3:0x133 / me=umh / subme=10 / psy=1 / fade_compensate=0.00 / psy_rd=1.00:0.00 / mixed_ref=1 / me_range=48 / chroma_me=1 / trellis=2 / 8x8dct=1 / cqm=0 / deadzone=21,11 / fast_pskip=1 / chroma_qp_offset=-4 / threads=6 / lookahead_threads=1 / sliced_threads=0 / nr=0 / decimate=0 / interlaced=0 / bluray_compat=0 / constrained_intra=0 / bframes=13 / b_pyramid=2 / b_adapt=2 / b_bias=0 / direct=1 / weightb=1 / open_gop=0 / weightp=2 / keyint=240 / keyint_min=23 / scenecut=40 / intra_refresh=0 / rc_lookahead=60 / rc=crf / mbtree=0 / crf=17.2000 / qcomp=0.60 / qpmin=0 / qpmax=69 / qpstep=4 / vbv_maxrate=50000 / vbv_bufsize=62500 / crf_max=0.0 / nal_hrd=none / filler=0 / ip_ratio=1.40 / pb_ratio=1.35 / aq=1:1.00
Default                                  : Да
Forced                                   : Нет

Аудио #1
Идентификатор                            : 2
Формат                                   : AC-3
Формат/Информация                        : Audio Coding 3
Расширение режима                        : CM (complete main)
Параметр Endianness формата              : Big
Идентификатор кодека                     : A_AC3
Продолжительность                        : 1 ч. 49 м.
Вид битрейта                             : Постоянный
Битрейт                                  : 384 Кбит/сек
Каналы                                   : 6 каналов
Расположение каналов                     : Front: L C R, Side: L R, LFE
Частота                                  : 48,0 КГц
Битовая глубина                          : 16 бит
Метод сжатия                             : С потерями
Размер потока                            : 301 Мбайт (11%)
Заголовок                                : Dub - iTunes Russia
Язык                                     : Russian
Default                                  : Нет
Forced                                   : Нет

Аудио #2
Идентификатор                            : 3
Формат                                   : AC-3
Формат/Информация                        : Audio Coding 3
Расширение режима                        : CM (complete main)
Параметр Endianness формата              : Big
Идентификатор кодека                     : A_AC3
Продолжительность                        : 1 ч. 49 м.
Вид битрейта                             : Постоянный
Битрейт                                  : 448 Кбит/сек
Каналы                                   : 6 каналов
Расположение каналов                     : Front: L C R, Side: L R, LFE
Частота                                  : 48,0 КГц
Битовая глубина                          : 16 бит
Метод сжатия                             : С потерями
Размер потока                            : 351 Мбайт (13%)
Заголовок                                : Original
Язык                                     : English
Default                                  : Да
Forced                                   : Нет

Текст
Идентификатор                            : 4
Формат                                   : UTF-8
Идентификатор кодека                     : S_TEXT/UTF8
Идентификатор кодека/Информация          : UTF-8 Plain Text
Заголовок                                : Full
Язык                                     : Finnish
Default                                  : Нет
Forced                                   : Нет

Меню
00:00:00.000                             : en:Chapter 01
00:10:15.094                             : en:Chapter 02
00:22:20.944                             : en:Chapter 03
00:30:59.087                             : en:Chapter 04
00:41:33.137                             : en:Chapter 05
00:53:08.707                             : en:Chapter 06
01:02:35.231                             : en:Chapter 07
01:13:17.498                             : en:Chapter 08
01:22:57.953                             : en:Chapter 09
01:34:18.800                             : en:Chapter 10
01:41:48.290                             : en:Chapter 11
pb.wtf



Скачать Кодекс Готти через торрент http://i1.imageban.ru/out/2018/08/30/3da30f240c2dd4993e3937ac0a2bb4ee.jpg Скачать фильм Кодекс Готти через торрент бесплантно в хорошем качестве О фильме:Джон Готти начинал свою криминальную карьеру, выполняя самые простые поручения. Позже он по праву стал ключевым человеком в ... 10 10 3
Торрент: Зарегистрирован [2018-08-30 16:39] · скачан: 230 раз
Статус: √ проверено
Размер: 2.71 GB
Как cкачать? Как скачать Кодекс Готти через торрент | qTorrent

% Раздел Тема Автор DL S | L
Фильмы [HD 720p, 1080p] (Хороший звук DUB, MVO) [ 5.03 GB ] Кодекс Готти / Gotti [2018 биография BDRip 720p] bober100 Скачать
1 | 0
Фильмы 2018 [DVDrip, WEB-DLRip, HDrip] (DUB, MVO) [ 1.41 GB ] Кодекс Готти / Gotti [2018 биография BDRip] - Twi7ter Скачать
1 | 0
Фильмы 2018 [DVDrip, WEB-DLRip, HDrip] (DUB, MVO) [ 1.41 GB ] Кодекс Готти / Gotti [2018 биография BDRip] killermax2013 Скачать
1 | 0
T Фильмы 2018 [DVDrip, WEB-DLRip, HDrip] (DUB, MVO) [ 1.44 GB ] Кодекс Готти / Gotti [2018 биография HDRip-AVC] MVO [HDrezka Studio] - ExKinoRay Enigma2010 Скачать
2 | 0
T Фильмы 2018 [DVDrip, WEB-DLRip, HDrip] (DUB, MVO) [ 1.68 GB ] Кодекс Готти / Gotti [2018 биография WEB-DLRip-AVC] MVO [HDrezka Studio] - ExKinoRay Enigma2010 Скачать
1 | 0

28-11-2019 20:33  

Отключить всю рекламу на сайте

    Дорогой пользователь! Огромная просьба, поблагодарите релизера, оцените раздачу и оставьте свои комментарий, если Вы скачали Кодекс Готти через торрент бесплатно! Внесите свою лепту в развитие PiratBit!
    Комментировать посты могут только пользователи прошедшие не сложную регистрацию
    Показать сообщения:    

    Кодекс Готти через торрент
    Скачать бесплатно Кодекс Готти
    Кодекс Готти скачать торрент
    Кодекс Готти смотреть онлайн
    Cкачать фильм Кодекс Готти бесплатно
    Кодекс Готти скачать торрент в хорошем качестве
    Кодекс Готти смотреть онлайн бесплатно в хорошем качестве


    Вы не можете начинать темы
    Вы не можете отвечать на сообщения
    Вы не можете редактировать свои сообщения
    Вы не можете удалять свои сообщения
    Вы не можете голосовать в опросах
    Вы не можете прикреплять файлы к сообщениям
    Вы можете скачивать файлы