Ссылка на приватное зеркало нашего сайта всего за 1$. Внимание количество ограничено!!!

2 сезон

iTunes

1 сезон

1

2 сезон

2 сезон

iTunes

1 сезон

RePack

30

Ultimate

ВАЖНО

ИГРА 18+

pack

RePack

MK11
pack

Забери бонус

RePack

jed

!!Акция!!

Alien_Rage

RePack

fifa19

RePack

Assassins Creed: Odyssey

RePack

NEED FOR SPEED™ PAYBACK

4 сезон

9 сезон

Бесстыжие 9 сезон

Все сериалы

все сериалы на PB.wtf

RePack

FAR CRY 5
  

Круги дьявола / Шакалы / Jackals (Кевин Гротерт) [2017, Ужасы, триллер, WEB-DL 1080p] DUB [iTunes] pb.wtf

Круги дьявола через торрент pb.wtf

Размер: 2.88 GB | Добавлен: 2 года 2 мес. назад | Торрент скачан:70 раз
Скачать  

30-08-2018 19:33 Круги дьявола Скачать торрент  

Круги дьявола / Шакалы / Jackals
Год выпуска: 2017
Страна: США
Жанр: Ужасы, триллер
Продолжительность: 01:22:24
Перевод: Дублированный | iTunes
Субтитры: отсутствуют

Режиссер: Кевин Гротерт

rating

В ролях:

Стивен Дорфф, Дебора Кара Ангер, Джонатон Шек, Алисса Джулия Смит, Ник Ру, Джейсон Скотт Дженкинс, Кэсси Эрнандес, Челси Рикеттс, Бен Салливан, Алекс Кастильо

Описание:

Семья, отгородившаяся от окружающего мира, привлекает известного специалиста по оккультным наукам, чтобы вытащить сына из зловещей секты, одержимой культом насилия. Но в попытке остановить процесс захвата его разума, семья оказывается запертой в загородном доме в глубине леса в окружении безжалостных сектантов, решивших вернуть пропавшего члена своей секты.

Качество: WEB-DL 1080p
Формат: MKV

Видео: 1920x804 (2.40:1), 25 fps, MPEG-4 AVC ~ 4615 Кbps avg, 0.120 bit/pixel
Аудио: AC3, 48 kHz, 6 ch, ~384.00 kbps avg | русский |iTunes
скриншот  скриншот  скриншот  скриншот  скриншот  

Общее
Уникальный идентификатор : 235928029294757880036907945447441780948 (0xB17E15EC1A827B27F803F11C834350D4)
Полное имя : ACKALS_2017_WEB_DL_1080p_KAZTORKA.mkv
Формат : Matroska
Версия формата : Version 4 / Version 2
Размер файла : 2,88 Гбайт
Продолжительность : 1 ч. 22 м.
Общий поток : 5001 Кбит/сек
Название фильма : JACKALS_2017_WEB_DL_1080p_KAZTORKA
Дата кодирования : UTC 2018-08-30 17:40:56
Программа кодирования : mkvmerge v20.0.0 ('I Am The Sun') 64-bit
Библиотека кодирования : libebml v1.3.5 + libmatroska v1.4.8

Видео
Идентификатор : 1
Формат : AVC
Формат/Информация : Advanced Video Codec
Профиль формата : High@L4
Настройки формата : CABAC / 5 Ref Frames
Параметр CABAC формата : Да
Параметр RefFrames формата : 5 кадров
Идентификатор кодека : V_MPEG4/ISO/AVC
Продолжительность : 1 ч. 22 м.
Битрейт : 4615 Кбит/сек
Ширина : 1920 пикселей
Высота : 804 пикселя
Соотношение сторон : 2,40:1
Режим частоты кадров : Постоянный
Частота кадров : 25,000 кадров/сек
Цветовое пространство : YUV
Субдискретизация насыщенности : 4:2:0
Битовая глубина : 8 бит
Тип развёртки : Прогрессивная
Бит/(Пиксели*Кадры) : 0.120
Размер потока : 2,66 Гбайт (92%)
Заголовок : JACKALS_2017_WEB_DL_1080p_KAZTORKA
Язык : English
Default : Да
Forced : Нет
Цветовой диапазон : Limited
Основные цвета : BT.709
Характеристики трансфера : BT.709
Коэффициенты матрицы : BT.709

Аудио
Идентификатор : 2
Формат : AC-3
Формат/Информация : Audio Coding 3
Идентификатор кодека : A_AC3
Продолжительность : 1 ч. 22 м.
Вид битрейта : Постоянный
Битрейт : 384 Кбит/сек
Каналы : 6 каналов
Расположение каналов : Front: L C R, Side: L R, LFE
Частота : 48,0 КГц
Частота кадров : 31,250 кадров/сек (1536 SPF)
Битовая глубина : 16 бит
Метод сжатия : С потерями
Задержка видео : -40 мс.
Размер потока : 226 Мбайт (8%)
Заголовок : iTunes
Язык : Russian
Default : Да
Forced : Нет

Меню
00:00:00.000 : en:Глава 1
00:06:34.800 : en:Глава 2
00:11:52.560 : en:Глава 3
00:19:07.480 : en:Глава 4
00:25:50.920 : en:Глава 5
00:30:10.560 : en:Глава 6
00:36:00.320 : en:Глава 7
00:41:47.920 : en:Глава 8
00:48:42.960 : en:Глава 9
00:55:58.560 : en:Глава 10
01:02:43.120 : en:Глава 11
01:09:08.360 : en:Глава 12

pb.wtf



Скачать Круги дьявола через торрент http://img11.lostpic.net/2018/06/27/9f203e4bf3c7dd81d126e64490773eb4.jpg Скачать фильм Круги дьявола через торрент бесплантно в хорошем качестве Описание: Семья, отгородившаяся от окружающего мира, привлекает известного специалиста по оккультным наукам, чтобы вытащить сына из ... 10 10 3
Торрент: Зарегистрирован [2018-08-30 19:33] · скачан: 70 раз
Статус: √ проверено
Размер: 2.88 GB
Как cкачать? Как скачать Круги дьявола через торрент | qTorrent

% Раздел Тема Автор DL S | L
Фильмы 2017 [DVDrip, WEB-DLRip, HDrip] (DUB, MVO) [ 1.45 GB ] Круги дьявола / Шакалы / Jackals [2017 WEB-DLRip] bober100 Скачать
1 | 0

28-11-2019 20:33  

Отключить всю рекламу на сайте

    Дорогой пользователь! Огромная просьба, поблагодарите релизера, оцените раздачу и оставьте свои комментарий, если Вы скачали Круги дьявола через торрент бесплатно! Внесите свою лепту в развитие PiratBit!
    Комментировать посты могут только пользователи прошедшие не сложную регистрацию
    Показать сообщения:    

    Круги дьявола через торрент
    Скачать бесплатно Круги дьявола
    Круги дьявола скачать торрент
    Круги дьявола смотреть онлайн
    Cкачать фильм Круги дьявола бесплатно
    Круги дьявола скачать торрент в хорошем качестве
    Круги дьявола смотреть онлайн бесплатно в хорошем качестве


    Вы не можете начинать темы
    Вы не можете отвечать на сообщения
    Вы не можете редактировать свои сообщения
    Вы не можете удалять свои сообщения
    Вы не можете голосовать в опросах
    Вы не можете прикреплять файлы к сообщениям
    Вы можете скачивать файлы