Marvel's Avengers Deluxe Edition (супер цена) 159р. Внимание количество ограничено!!!

2 сезон

iTunes

iTunes

1

iTunes

iTunes

iTunes

WEBRip

iTunes

30
pack

Новость дня

ВАЖНО

!!Акция!!

Alien_RageХит недели

RePack

Horizon Zero Dawn

ИГРА 18+

pack

RePack

jed

!!Акция!!

Alien_Rage

RePack

fifa19

RePack

Assassins Creed: Odyssey

RePack

NEED FOR SPEED™ PAYBACK

4 сезон

9 сезон

Бесстыжие 9 сезон

Все сериалы

все сериалы на PB.wtf

RePack

FAR CRY 5
  

Питбуль. Последний пес / Pitbull. Ostatni pies / Pitbull: Last Dog (Владислав Пасиковский) [2018, Боевик, драма, криминал, BDRip 720p] MVO ["Синема УС"] pb.wtf

Питбуль. Последний пес через торрент pb.wtf

Размер: 5.91 GB | Добавлен: 2 года назад | Торрент скачан:74 раза
Скачать  

30-08-2018 20:27 Питбуль. Последний пес Скачать торрент  

Питбуль. Последний пес / Pitbull. Ostatni pies / Pitbull: Last Dog
Год выпуска: 2018
Страна: Польша
Жанр: Боевик, драма, криминал
Продолжительность: 02:07:46
Перевод: Любительский (многоголосый) | "Синема УС"
Субтитры: отсутствуют

Режиссер: Владислав Пасиковский

rating

В ролях:

Марчин Дорочиньский, Кшиштоф Строиньский, Дорота Рабчевска, Рафаль Мор, Цезары Пазура, Адам Воронович, Мариан Дзендзель, Агнешка Кавиорска, Мирослява Малюдзинская, Изабела Куна

Описание:

Убит полицейский. Шеф полиции отправляет нескольких опытных офицеров на борьбу с организованной преступностью. Тем временем назревает конфликт между местными бандами.

Качество: BDRip 720p
Формат: MKV

Видео: h.264,6 169 kb/s, 1280x536
Аудио#1: Русский (AC3, 2 ch, 448 Кбит/с)
скриншот  скриншот  скриншот  

Общее
Уникальный идентификатор : 200021509548516979921014117741016958218 (0x967ABDD160BB8CAB987C5876B2FCC50A)
Полное имя : D:\Pitbull.last.dog.2018.P.BDRip.72Op_KOSHARA.mkv
Формат : Matroska
Версия формата : Version 2
Размер файла : 5,91 Гбайт
Продолжительность : 2 ч. 7 м.
Режим общего битрейта : Переменный
Общий поток : 6619 Кбит/сек
Дата кодирования : UTC 2018-08-28 17:33:33
Программа кодирования : mkvmerge v8.3.0 ('Over the Horizon') 64bit
Библиотека кодирования : libebml v1.3.1 + libmatroska v1.4.2

Видео
Идентификатор : 1
Формат : AVC
Формат/Информация : Advanced Video Codec
Профиль формата : High@L4.1
Параметр CABAC формата : Да
Параметр RefFrames формата : 4 кадра
Идентификатор кодека : V_MPEG4/ISO/AVC
Продолжительность : 2 ч. 7 м.
Вид битрейта : Переменный
Битрейт : 6169 Кбит/сек
Максимальный битрейт : 6900 Кбит/сек
Ширина : 1280 пикселей
Высота : 536 пикселей
Соотношение сторон : 2,40:1
Режим частоты кадров : Постоянный
Частота кадров : 23,976 (24000/1001) кадра/сек
Стандарт вещания : Component
Цветовое пространство : YUV
Субдискретизация насыщенности : 4:2:0
Битовая глубина : 8 бит
Тип развёртки : Прогрессивная
Бит/(Пиксели*Кадры) : 0.367
Размер потока : 5,39 Гбайт (91%)
Default : Да
Forced : Нет
Цветовой диапазон : Limited
Основные цвета : BT.709
Характеристики трансфера : BT.709
Коэффициенты матрицы : BT.709

Аудио
Идентификатор : 2
Формат : AC-3
Формат/Информация : Audio Coding 3
Расширение режима : CM (complete main)
Параметр Endianness формата : Big
Идентификатор кодека : A_AC3
Продолжительность : 2 ч. 7 м.
Вид битрейта : Постоянный
Битрейт : 448 Кбит/сек
Каналы : 2 канала
Расположение каналов : Front: L R
Частота : 48,0 КГц
Частота кадров : 31,250 кадров/сек (1536 spf)
Метод сжатия : С потерями
Размер потока : 409 Мбайт (7%)
Default : Да
Forced : Нет

pb.wtf



Скачать Питбуль. Последний пес через торрент http://img12.lostpic.net/2018/08/30/dcb8e65ff23cbf065eae22afe0501911.jpg Скачать фильм Питбуль. Последний пес через торрент бесплантно в хорошем качестве Описание: Убит полицейский. Шеф полиции отправляет нескольких опытных офицеров на борьбу с организованной преступностью. Тем временем ... 8.2 10 5
Торрент: Зарегистрирован [2018-08-30 20:27] · скачан: 74 раз
Статус: # сомнительно
Размер: 5.91 GB
Как cкачать? Как скачать Питбуль. Последний пес через торрент | qTorrent

% Раздел Тема Автор DL S | L
T Фильмы (мультфильмы) cо спонсором показа (Новинки AVI/MKV) [ 1.37 GB ] Питбуль. Последний пес / Pitbull. Ostatni pies / Pitbull: Last Dog [2018 HDRip] MVO ["Синема УС"] bober100 Скачать
1 | 0
T Фильмы (мультфильмы) cо спонсором показа (Новинки AVI/MKV) [ 2.05 GB ] Питбуль. Последний пес / Pitbull. Ostatni pies / Pitbull: Last Dog [2018 HDRip] MVO ["Синема УС"] bober100 Скачать
1 | 0

28-11-2019 20:33  

Отключить всю рекламу на сайте

    Дорогой пользователь! Огромная просьба, поблагодарите релизера, оцените раздачу и оставьте свои комментарий, если Вы скачали Питбуль. Последний пес через торрент бесплатно! Внесите свою лепту в развитие PiratBit!
    Комментировать посты могут только пользователи прошедшие не сложную регистрацию
    Показать сообщения:    

    Питбуль. Последний пес через торрент
    Скачать бесплатно Питбуль. Последний пес
    Питбуль. Последний пес скачать торрент
    Питбуль. Последний пес смотреть онлайн
    Cкачать фильм Питбуль. Последний пес бесплатно
    Питбуль. Последний пес скачать торрент в хорошем качестве
    Питбуль. Последний пес смотреть онлайн бесплатно в хорошем качестве


    Вы не можете начинать темы
    Вы не можете отвечать на сообщения
    Вы не можете редактировать свои сообщения
    Вы не можете удалять свои сообщения
    Вы не можете голосовать в опросах
    Вы не можете прикреплять файлы к сообщениям
    Вы можете скачивать файлы