Ссылка на приватное зеркало нашего сайта всего за 1$. Внимание количество ограничено!!!

2 сезон

iTunes

1 сезон

1

2 сезон

2 сезон

iTunes

1 сезон

RePack

30

Новинка

ВАЖНО

ИГРА 18+

pack

RePack

MK11
pack

Забери бонус

RePack

jed

!!Акция!!

Alien_Rage

RePack

fifa19

RePack

Assassins Creed: Odyssey

RePack

NEED FOR SPEED™ PAYBACK

4 сезон

9 сезон

Бесстыжие 9 сезон

Все сериалы

все сериалы на PB.wtf

RePack

FAR CRY 5
  

Бесстыжие / Бесстыдники / Shameless (US) / Сезон: 6 / Серии: 1-12 из 12 (Марк Майлод, Джон Уэллс, Мими Ледер, Санаа Хамри, Питер Сигал) [2016, драма, комедия, HDTVRip 1080p] MVO [AlexFilm] pb.wtf

Бесстыжие через торрент pb.wtf

Размер: 48.24 GB | Добавлен: 2 года 2 мес. назад | Торрент скачан:33 раза
Скачать  

30-08-2018 21:25 Бесстыжие Скачать торрент  

Бесстыжие | Shameless (US) Год выпуска: 2016
Страна: США
Жанр: драма, комедия
Продолжительность: ~ 00:58:00
Перевод: Профессиональный (многоголосый закадровый) | AlexFilm
Субтитры: русские (нотабеноид), английские

Режиссёр: Марк Майлод, Джон Уэллс, Мими Ледер, Санаа Хамри, Питер Сигал

В ролях:

Уильям Х. Мэйси, Эмми Россам, Камерон Монахэн, Джереми Аллен Уайт, Эмма Кинни, Итэн Каткоски, Блейк Александр Джонсон, Бреннан Кэйн Джонсон, Шанола Хэмптон, Стив Хоуи, Джоан Кьюсак, Ноэль Фишер, Эмма Гринвелл, Джэйк Макдорман и др.

Описание:

Shameless, основанный на одноименном британском сериале, расскажет о семействе Галлагеров из Чикаго. Мать уже давно бросила семью, а отец-алкоголик обычно лежит в отключке, поэтому старшей дочери приходится взять на себя обязанности родителя и воспитывать четверых братьев и сестру.



Качество: HDTVRip 1080p
Формат: MKV

Видео: x264, ~ 11465 kbps, 1920x1080 (16:9), 23,976 fps
Аудио 1: AC3, 48,0 КГц, 6 ch, 448 kbps - Rus
Аудио 2: AC3, 48,0 КГц, 6 ch, 384 kbps- Eng
Внимание! В сериале присутствуют сцены с обнаженной натурой и ненормативная лексика!
Переведено и озвучено при поддержке пользователей AlexFilm.

Перевод: Doctor Joker и MartinaG
Роли озвучивали: Евгения Тихонова, Анастасия Флигина, Константин Погодаев, Александр Дасевич, Михаил Суслов
Общее
Уникальный идентификатор                 : 176306605543063533445378683340088456880 (0x84A36AC71F50516D925C9CF84348B6B0)
Полное имя                               : D:\фильмы\Shameless (US) - Season 6 (AlexFilm) HDTV 1080p\Shameless.US.s06e01.HDTVRip.1080p.Rus.Eng.AlexFilm.mkv
Формат                                   : Matroska
Версия формата                           : Version 4 / Version 2
Размер файла                             : 4,92 Гбайт
Продолжительность                        : 57 м.
Общий поток                              : 12,3 Мбит/сек
Название фильма                          : Shameless US 6x01 @ AlexFilm
Дата кодирования                         : UTC 2016-01-06 12:47:44
Программа кодирования                    : mkvmerge v8.3.0 ('Over the Horizon') 64bit
Библиотека кодирования                   : libebml v1.3.1 + libmatroska v1.4.2
DURATION                                 : 00:56:15.737000000
NUMBER_OF_FRAMES                         : 982
NUMBER_OF_BYTES                          : 28454
_STATISTICS_WRITING_APP                  : mkvmerge v8.3.0 ('Over the Horizon') 64bit
_STATISTICS_WRITING_DATE_UTC             : 2016-01-06 12:47:44
_STATISTICS_TAGS                         : BPS DURATION NUMBER_OF_FRAMES NUMBER_OF_BYTES

Видео
Идентификатор                            : 1
Формат                                   : AVC
Формат/Информация                        : Advanced Video Codec
Профиль формата                          : High@L4.1
Параметр CABAC формата                   : Да
Параметр ReFrames формата                : 4 кадра
Идентификатор кодека                     : V_MPEG4/ISO/AVC
Продолжительность                        : 57 м.
Битрейт                                  : 11,2 Мбит/сек
Ширина                                   : 1920 пикселей
Высота                                   : 1080 пикселей
Соотношение сторон                       : 16:9
Режим частоты кадров                     : Постоянный
Частота кадров                           : 23,962 кадра/сек
Частота кадров в оригинале               : 23,976 кадра/сек
Цветовое пространство                    : YUV
Субдискретизация насыщенности            : 4:2:0
Битовая глубина                          : 8 бит
Тип развёртки                            : Прогрессивная
Бит/(Пиксели*Кадры)                      : 0.226
Размер потока                            : 4,49 Гбайт (91%)
Библиотека кодирования                   : x264 core 148 r2638 7599210
Настройки программы                      : cabac=1 / ref=4 / deblock=1:-2:-2 / analyse=0x3:0x113 / me=umh / subme=8 / psy=1 / psy_rd=1.05:0.00 / mixed_ref=1 / me_range=16 / chroma_me=1 / trellis=1 / 8x8dct=1 / cqm=0 / deadzone=21,11 / fast_pskip=1 / chroma_qp_offset=-2 / threads=24 / lookahead_threads=4 / sliced_threads=0 / nr=0 / decimate=1 / interlaced=0 / bluray_compat=0 / constrained_intra=0 / bframes=3 / b_pyramid=2 / b_adapt=2 / b_bias=0 / direct=3 / weightb=1 / open_gop=0 / weightp=2 / keyint=250 / keyint_min=23 / scenecut=40 / intra_refresh=0 / rc_lookahead=50 / rc=crf / mbtree=1 / crf=17.0 / qcomp=0.60 / qpmin=0 / qpmax=69 / qpstep=4 / ip_ratio=1.40 / aq=1:0.70
Язык                                     : English
Default                                  : Да
Forced                                   : Нет

Аудио #1
Идентификатор                            : 2
Формат                                   : AC-3
Формат/Информация                        : Audio Coding 3
Расширение режима                        : CM (complete main)
Параметр Endianness формата              : Big
Идентификатор кодека                     : A_AC3
Продолжительность                        : 57 м.
Вид битрейта                             : Постоянный
Битрейт                                  : 448 Кбит/сек
Каналы                                   : 6 каналов
Расположение каналов                     : Front: L C R, Side: L R, LFE
Частота                                  : 48,0 КГц
Битовая глубина                          : 16 бит
Метод сжатия                             : С потерями
Размер потока                            : 183 Мбайт (4%)
Заголовок                                : DD5.1 AlexFilm
Язык                                     : Russian
Default                                  : Да
Forced                                   : Да

Аудио #2
Идентификатор                            : 3
Формат                                   : AC-3
Формат/Информация                        : Audio Coding 3
Расширение режима                        : CM (complete main)
Параметр Endianness формата              : Big
Идентификатор кодека                     : A_AC3
Продолжительность                        : 57 м.
Вид битрейта                             : Постоянный
Битрейт                                  : 384 Кбит/сек
Каналы                                   : 6 каналов
Расположение каналов                     : Front: L C R, Side: L R, LFE
Частота                                  : 48,0 КГц
Битовая глубина                          : 16 бит
Метод сжатия                             : С потерями
Размер потока                            : 157 Мбайт (3%)
Язык                                     : English
Default                                  : Нет
Forced                                   : Нет

Текст #1
Идентификатор                            : 4
Формат                                   : UTF-8
Идентификатор кодека                     : S_TEXT/UTF8
Идентификатор кодека/Информация          : UTF-8 Plain Text
Язык                                     : Russian
Default                                  : Нет
Forced                                   : Нет

Текст #2
Идентификатор                            : 5
Формат                                   : UTF-8
Идентификатор кодека                     : S_TEXT/UTF8
Идентификатор кодека/Информация          : UTF-8 Plain Text
Язык                                     : English
Default                                  : Нет
Forced                                   : Нет
скриншот  скриншот  скриншот  скриншот  скриншот  
Когда раздача ведётся путём добавления новых серий, при каждом добавлении создётся новый торрент. Чтобы начать докачку новой серии, пользователям необходимо сделать следующее:
(1) остановить скачивание,
(2) удалить старый торрент у себя из клиента (старые серии удалять не надо),
(3) скачать новый торрент и запустить его у себя в клиенте вместо старого, при этом указать клиенту путь в старую папку, куда и должно происходить скачивание новых серий.
Ваш клиент при этом должен произвести хеширование (проверку) старой папки (если не производит сам - помогите ему сделать это), и будет докачивать только те серии, которых у вас ещё нет. Старые серии при этом не удаляются, а продолжают раздаваться!
Eсли вы уже удалили старые серии, то предотвратить повторную закачку старых серий можно, отжав галочку в соответсвующих местах при запуске нового торрента. По возможности, желательно не удалять старые серии как можно дольше, чтобы релизёр не столько продолжал раздавать старые серии, а смог сконцентрироваться на новых.
pb.wtf



Скачать Бесстыжие через торрент http://img11.lostpic.net/2018/08/31/e090e84bb51461c6bb2c472877c5b770.png Скачать фильм Бесстыжие через торрент бесплантно в хорошем качестве Описание: Shameless, основанный на одноименном британском сериале, расскажет о семействе Галлагеров из Чикаго. Мать уже давно бросила ... 10 10 3
Info! Золотая раздача, скачанное не засчитывается.
Торрент: Зарегистрирован [2018-08-30 21:25] · скачан: 33 раз
Статус: √ проверено
Размер: 48.24 GB
Как cкачать? Как скачать Бесстыжие через торрент | qTorrent

% Раздел Тема Автор DL S | L
Зарубежные сериалы [ 113.73 GB ] Бесстыжие / Бесстыдники / Shameless / Сезон: 1-10 / Серия: 1-122 из 122 [2011-2019 HDRip HDTVRip WEB-DLRip] MVO [AlexFilm] bober100 Скачать
3 | 1
Зарубежные сериалы [ 16.8 GB ] Бесстыдники / Бесстыжие / Shameless / Cезон 1 [2011 HDTV 720p] fallen_poet Скачать
1 | 0
Зарубежные сериалы [ 9.45 GB ] Бесстыжие / Бесстыдники / Shameless / Сезон: 10 / Серии: 1-12 из 12 [2019 WEB-DLRip] MVO [AlexFilm] bober100 Скачать
5 | 3
Зарубежные сериалы [ 28.24 GB ] Бесстыжие / Бесстыдники / Shameless / Сезон: 10 / Серии: 1-12 из 12 [2019 WEB-DL 720p] MVO [AlexFilm] bober100 Скачать
1 | 0
Зарубежные сериалы [ 50 GB ] Бесстыжие / Бесстыдники / Shameless / Сезон: 10 / Серия: 1-12 из 12 [2019 WEB-DL 1080p] MVO [AlexFilm] bober100 Скачать
2 | 0
Зарубежные сериалы [ 54.15 GB ] Бесстыжие / Бесстыдники / Shameless / Сезон: 9 / Серии: 1-14 из 14 [2018 WEB-DL 1080p] MVO [AlexFilm] bober100 Скачать
2 | 0
Зарубежные сериалы [ 25.49 GB ] Бесстыжие / Бесстыдники / Shameless / Сезон: 9 / Серии: 1-14 из 14 [2018 WEB-DL 720p] MVO [AlexFilm] bober100 Скачать
1 | 3

28-11-2019 20:33  

Отключить всю рекламу на сайте

    Дорогой пользователь! Огромная просьба, поблагодарите релизера, оцените раздачу и оставьте свои комментарий, если Вы скачали Бесстыжие через торрент бесплатно! Внесите свою лепту в развитие PiratBit!
    Комментировать посты могут только пользователи прошедшие не сложную регистрацию
    Показать сообщения:    

    Бесстыжие через торрент
    Скачать бесплатно Бесстыжие
    Бесстыжие скачать торрент
    Бесстыжие смотреть онлайн
    Cкачать фильм Бесстыжие бесплатно
    Бесстыжие скачать торрент в хорошем качестве
    Бесстыжие смотреть онлайн бесплатно в хорошем качестве


    Вы не можете начинать темы
    Вы не можете отвечать на сообщения
    Вы не можете редактировать свои сообщения
    Вы не можете удалять свои сообщения
    Вы не можете голосовать в опросах
    Вы не можете прикреплять файлы к сообщениям
    Вы можете скачивать файлы