Ссылка на приватное зеркало всего за 1$. Внимание количество ограничено!!!

iTunes

1+1

iTunes

мы

WEB-DL

1

iTunes

Чернобыль

iTunes

Ральф против интернета

Лицензия

ПШазам

Лицензия

Оно 2

Лицензия

30
pack

Вам бонус

ВАЖНО

!!Акция!!

Alien_RageХит недели

RePack

Resident Evil 21

ИГРА 18+

pack

RePack

jed

!!Акция!!

Alien_Rage

RePack

fifa19

RePack

Assassins Creed: Odyssey

RePack

NEED FOR SPEED™ PAYBACK

3 сезон

9 сезон

Бесстыжие 9 сезон

Все сериалы

все сериалы на PB.wtf

RePack

FAR CRY 5
Ребята, катастрофически не хватает 1900р. для оплаты серверов за Октябрь (всвязи с блокировками трафик упал в 3 раза), 1-2р., выручайте.
  

Незнакомцы: Жестокие игры / The Strangers: Prey at Night (Йоханнес Робертс) [2018, ужасы, BDRip-AVC] Лицензия - ExKinoRay pb.wtf

Незнакомцы: Жестокие игры через торрент pb.wtf

Раздают: 1 [ 0 KB/s ]
Размер: 1.56 GB | Добавлен: 1 год 3 мес. назад | Торрент скачан:188 раз
Скачать  

31-08-2018 00:02 Незнакомцы: Жестокие игры Скачать торрент  

Информация о фильме
Название: Незнакомцы: Жестокие игры
Оригинальное название: The Strangers: Prey at Night
Год выхода: 2018
Жанр: ужасы
Режиссер: Йоханнес Робертс
В ролях: Кристина Хендрикс, Бэйли Мэдисон, Эмма Белломи, Мартин Хендерсон, Льюис Пуллман, Дэмиэн Маффей, Лиа Энзлин, Леа Робертс, Престон Садлеир

Описание:
Американская семья отправляется в небольшое путешествие — навестить родственников, которые живут в кемпинге. Но автомобильный лагерь оказывается пуст. Под покровом ночи появляются трое психопатов в масках, цель которых не грабить или убивать, а выяснить, какой у каждого из членов семьи личный предел жажды жизни…​

rating

Страна: США
Студия: Bloom
Продолжительность: 01:25:37
Перевод: Дублированный | Лицензия BD RUS
Субтитры: Русские, английские

Формат: MKV
Качество: BDRip-AVC (The.Strangers.Prey.at.Night.2018.BDREMUX.1080p.ExKinoRay)
Видео: MPEG-4 AVC, 1024x428 (2.40:1), 23.976 fps, 1710 Kbps, 0.163 bit/pixel
Аудио #01: 48 kHz, AC3, 5.1, 448 Kbps | RUS |
Аудио #02: 48 kHz, AC3, 5.1, 448 Kbps | Оригинал | ENG |
General
Unique ID : 198019130243015370513891559675376813025 (0x94F918E55A7338DA976A0F9A6C89C3E1)
Complete name : D:\The.Strangers.Prey.at.Night.2018.BDRip.AVC.ExKinoRay.mkv
Format : Matroska
Format version : Version 2
File size : 1.56 GiB
Duration : 1 h 25 min
Overall bit rate : 2 605 kb/s
Movie name : The Strangers Prey at Night 2018 from ExKinoRay
Encoded date : UTC 2018-08-30 20:58:08
Writing application : mkvmerge v5.6.0 ('Kenya Kane') built on May 27 2012 16:44:04
Writing library : libebml v1.2.3 + libmatroska v1.3.0

Video
ID : 1
Format : AVC
Format/Info : Advanced Video Codec
Format profile : High@L4.1
Format settings, CABAC : Yes
Format settings, ReFrames : 14 frames
Codec ID : V_MPEG4/ISO/AVC
Duration : 1 h 25 min
Bit rate : 1 710 kb/s
Width : 1 024 pixels
Height : 428 pixels
Display aspect ratio : 2.40:1
Frame rate mode : Constant
Frame rate : 23.976 (23976/1000) FPS
Color space : YUV
Chroma subsampling : 4:2:0
Bit depth : 8 bits
Scan type : Progressive
Bits/(Pixel*Frame) : 0.163
Stream size : 1 015 MiB (64%)
Title : Enigma
Writing library : x264 core 152 r2851 ba24899
Encoding settings : cabac=1 / ref=14 / deblock=1:-2:-2 / analyse=0x3:0x113 / me=umh / subme=10 / psy=1 / psy_rd=1.00:0.05 / mixed_ref=1 / me_range=32 / chroma_me=1 / trellis=2 / 8x8dct=1 / cqm=0 / deadzone=21,11 / fast_pskip=0 / chroma_qp_offset=-3 / threads=12 / lookahead_threads=3 / sliced_threads=0 / nr=0 / decimate=0 / interlaced=0 / bluray_compat=0 / constrained_intra=0 / bframes=14 / b_pyramid=2 / b_adapt=2 / b_bias=0 / direct=3 / weightb=1 / open_gop=0 / weightp=2 / keyint=240 / keyint_min=23 / scenecut=40 / intra_refresh=0 / rc=2pass / mbtree=0 / bitrate=1710 / ratetol=1.0 / qcomp=0.60 / qpmin=0 / qpmax=51 / qpstep=4 / cplxblur=20.0 / qblur=0.5 / ip_ratio=1.40 / pb_ratio=1.30 / aq=3:0.90
Language : English
Default : Yes
Forced : No
Color range : Limited
Color primaries : BT.709
Transfer characteristics : BT.709
Matrix coefficients : BT.709

Audio #1
ID : 2
Format : AC-3
Format/Info : Audio Coding 3
Mode extension : CM (complete main)
Format settings, Endianness : Big
Codec ID : A_AC3
Duration : 1 h 25 min
Bit rate mode : Constant
Bit rate : 448 kb/s
Channel(s) : 6 channels
Channel positions : Front: L C R, Side: L R, LFE
Sampling rate : 48.0 kHz
Frame rate : 31.250 FPS (1536 spf)
Compression mode : Lossy
Stream size : 274 MiB (17%)
Title : Dub (Blu-Ray)
Language : Russian
Default : Yes
Forced : No

Audio #2
ID : 3
Format : AC-3
Format/Info : Audio Coding 3
Mode extension : CM (complete main)
Format settings, Endianness : Big
Codec ID : A_AC3
Duration : 1 h 25 min
Bit rate mode : Constant
Bit rate : 448 kb/s
Channel(s) : 6 channels
Channel positions : Front: L C R, Side: L R, LFE
Sampling rate : 48.0 kHz
Frame rate : 31.250 FPS (1536 spf)
Compression mode : Lossy
Stream size : 274 MiB (17%)
Language : English
Default : No
Forced : No

Text #1
ID : 4
Format : UTF-8
Codec ID : S_TEXT/UTF8
Codec ID/Info : UTF-8 Plain Text
Title : full
Language : Russian
Default : No
Forced : No

Text #2
ID : 5
Format : UTF-8
Codec ID : S_TEXT/UTF8
Codec ID/Info : UTF-8 Plain Text
Title : Full
Language : English
Default : No
Forced : No

Text #3
ID : 6
Format : UTF-8
Codec ID : S_TEXT/UTF8
Codec ID/Info : UTF-8 Plain Text
Title : SDH
Language : English
Default : No
Forced : No

Menu
00:00:00.000 : en:00:00:00.000
00:04:59.883 : en:00:04:59.883
00:08:49.154 : en:00:08:49.154
00:12:58.111 : en:00:12:58.111
00:17:23.918 : en:00:17:23.918
00:21:53.771 : en:00:21:53.771
00:24:53.909 : en:00:24:53.909
00:30:15.105 : en:00:30:15.105
00:34:45.208 : en:00:34:45.208
00:40:01.899 : en:00:40:01.899
00:44:48.728 : en:00:44:48.728
00:49:48.444 : en:00:49:48.444
00:53:12.606 : en:00:53:12.606
00:56:55.996 : en:00:56:55.996
00:58:20.705 : en:00:58:20.705
01:00:37.884 : en:01:00:37.884
01:05:21.709 : en:01:05:21.709
01:09:17.528 : en:01:09:17.528
01:14:59.036 : en:01:14:59.036
01:18:07.349 : en:01:18:07.349
Релиз от:

Автор релиза: pb.wtf



Скачать Незнакомцы: Жестокие игры через торрент http://img12.lostpic.net/2018/05/22/0b12e0114e594ad6d95064a43ee07757.jpg Скачать фильм Незнакомцы: Жестокие игры через торрент бесплантно в хорошем качестве Описание: Американская семья отправляется в небольшое путешествие — навестить родственников, которые живут в кемпинге. Но автомобильный ... 9.1 10 11
Info! Золотая раздача, скачанное не засчитывается.
Торрент: Зарегистрирован [2018-08-31 00:02] · скачан: 188 раз
Статус: √ проверено
Размер: 1.56 GB
Как cкачать? Как скачать Незнакомцы: Жестокие игры через торрент | qTorrent

28-11-2019 20:33  

Отключить всю рекламу на сайте

31-08-2018 13:21 Незнакомцы: Жестокие игры Скачать торрент  

На разок можно посмотреть, неплохо.pb.wtf



    Дорогой пользователь! Огромная просьба, поблагодарите релизера, оцените раздачу и оставьте свои комментарий, если Вы скачали Незнакомцы: Жестокие игры через торрент бесплатно! Внесите свою лепту в развитие PiratBit!
    Комментировать посты могут только пользователи прошедшие не сложную регистрацию
    Показать сообщения:    

    Незнакомцы: Жестокие игры через торрент
    Скачать бесплатно Незнакомцы: Жестокие игры
    Незнакомцы: Жестокие игры скачать торрент
    Незнакомцы: Жестокие игры смотреть онлайн
    Cкачать фильм Незнакомцы: Жестокие игры бесплатно
    Незнакомцы: Жестокие игры скачать торрент в хорошем качестве
    Незнакомцы: Жестокие игры смотреть онлайн бесплатно в хорошем качестве


    Вы не можете начинать темы
    Вы не можете отвечать на сообщения
    Вы не можете редактировать свои сообщения
    Вы не можете удалять свои сообщения
    Вы не можете голосовать в опросах
    Вы не можете прикреплять файлы к сообщениям
    Вы можете скачивать файлы