Лицензия

MVO

1

1 сезон

Лицензия

Лицензия

13

MVO

1 сезон

Deluxe Edition

pack

Рекомендуем

30

Repack

ВАЖНО

ВАЖНО

Ghostwire

RePack

jed

RePack

fifa19

RePack

RDR2

RePack

NEED FOR SPEED™ PAYBACK

RePack

Кинопоиск HD

 Острые козырьки 6 сезон

6 сезон

FAR CRY 6

RePack

Лицензия

MVO

1

1 сезон

1 сезон

Лицензия

  

Цена страха / The Sum of All Fears (Фил Олден Робинсон) [2002, боевик, триллер, драма, военный, BDRip 1080p by msltel] DUB, MVO, 2 x DVO, AVO

Цена страха через торрент pb.wtf

Размер: 14.79 GB | Добавлен: 4 года назад | Торрент скачан:34 раза
Смотреть онлайн Цена страха | Скачать   

31-08-2018 05:42 Цена страха Скачать торрент  

Название: Цена страха
Оригинальное название: The Sum of All Fears
Год выпуска: 2002
Страна: США, Германия
Жанр: боевик, триллер, драма, военный
Продолжительность: 02:03:41
Перевод: дублированный, профессиональный многоголосый, профессиональный двухголосый, авторский

Режиссер: Фил Олден Робинсон
В ролях: Бен Аффлек, Морган Фримен, Джеймс Кромуэлл, Кен Дженкинс, Лив Шрайбер, Брюс МакГилл, Джон Бизли, Расселл Боббитт, Филип Бэйкер Холл, Ричард Кохи, Филип Преттен, Элисон Дарси, Ричард Марнер, Остап Сорока, Роберт Мартин Робинсон, Дэйл Годбольдо, Ли Гарлингтон, Джэми Харольд, Алан Бэйтс, Стэфан Калифа, Набил Елухаби, Мария Монахова, Бриджет Мойнэхэн, Франсуа Брайон, Йозеф Зоммер, Колм Фиор, Эдвард Зиновьев, Киаран Хайндс, Шина Ларкин, Фрэнк Фон

О фильме: Когда президент России внезапно умирает, его пост занимает человек, о котором общественности известно достаточно мало. Именно этот факт увеличивает напряжённую обстановку в США. Глава ЦРУ Билл Кэбот принимает на работу молодого аналитика Джека Райана, специалиста по России, чтобы получать достоверную информацию из первых рук. Вскоре случается ужасное: столица Чечни обзаводится ядерной бомбой. Американцы начинают обвинять во всём русских. Также они недоверчиво относятся к сведениям Райана, который с риском для жизни проводит свои расследования. А он прав - террористы провоцируют начало войны между двумя нациями, находясь позади сцены. Когда они успешно взрывают бомбу рядом с Балтимором во время Золотого Кубка, мир уже находится на грани войны. Но… если Райан вовремя достанет необходимые доказательства, то этот поток бедствий прекратится... Фильм снят по мотивам бестселлера Тома Клэнси «Все страхи мира» (англ. The Sum of All Fears) (1991).



Качество: BDRip 1080p
Формат: MKV
Видео: MPEG-4 AVC, 12.5 Mбит/с, 1920x804, 23.976 кадр/с
Аудио 1: русский, AC3, 384 kbps, 6 ch, 48 kHz [дублированный, Ист-Вест, Пифагор]
Аудио 2: русский, AC3, 384 kbps, 6 ch, 48 kHz [закадровый многоголосый]
Аудио 3: русский, AC3, 448 kbps, 6 ch, 48 kHz [закадровый двухголосый, Карусель]
Аудио 4: русский, AC3, 384 kbps, 6 ch, 48 kHz [закадровый двухголосый, DDV]
Аудио 5: русский, DTS, 1509 kbps, 6 ch, 48 kHz [авторский, Владимир Королёв]
Аудио 6: английский, DTS, 1509 kbps, 6 ch, 48 kHz [оригинал]
Субтитры 1: русские
Субтитры 2: английские
Главы/чаптеры
Общее
Уникальный идентификатор : 172249608865810409804754521460808783617 (0x81961165FB487B398BD8341D149A9701)
Полное имя : D:\Video\Цена страха.2002.BDRip.1080p by msltel.mkv
Формат : Matroska
Версия формата : Version 4 / Version 2
Размер файла : 14,8 Гбайт
Продолжительность : 2 ч. 3 м.
Общий поток : 17,1 Мбит/сек
Название фильма : Rip by msltel
Дата кодирования : UTC 2018-08-31 05:28:34
Программа кодирования : mkvmerge v8.2.0 ('World of Adventure') 64bit
Библиотека кодирования : libebml v1.3.1 + libmatroska v1.4.2

Видео
Идентификатор : 1
Формат : AVC
Формат/Информация : Advanced Video Codec
Профиль формата : [email protected]
Настройки формата : CABAC / 4 Ref Frames
Параметр CABAC формата : Да
Параметр RefFrames формата : 4 кадра
Идентификатор кодека : V_MPEG4/ISO/AVC
Продолжительность : 2 ч. 3 м.
Битрейт : 12,5 Мбит/сек
Ширина : 1920 пикселей
Высота : 804 пикселя
Соотношение сторон : 2,40:1
Режим частоты кадров : Постоянный
Частота кадров : 23,976 (24000/1001) кадра/сек
Цветовое пространство : YUV
Субдискретизация насыщенности : 4:2:0
Битовая глубина : 8 бит
Тип развёртки : Прогрессивная
Бит/(Пиксели*Кадры) : 0.337
Размер потока : 10,8 Гбайт (73%)
Библиотека кодирования : x264 core 155 r2901 7d0ff22
Настройки программы : cabac=1 / ref=4 / deblock=1:-3:-2 / analyse=0x3:0x113 / me=umh / subme=11 / psy=1 / psy_rd=1.00:0.15 / mixed_ref=1 / me_range=32 / chroma_me=1 / trellis=2 / 8x8dct=1 / cqm=0 / deadzone=21,11 / fast_pskip=0 / chroma_qp_offset=-3 / threads=6 / lookahead_threads=1 / sliced_threads=0 / nr=0 / decimate=1 / interlaced=0 / bluray_compat=0 / constrained_intra=0 / bframes=8 / b_pyramid=2 / b_adapt=2 / b_bias=0 / direct=1 / weightb=1 / open_gop=0 / weightp=2 / keyint=230 / keyint_min=23 / scenecut=40 / intra_refresh=0 / rc_lookahead=40 / rc=crf / mbtree=1 / crf=20.1 / qcomp=0.60 / qpmin=0 / qpmax=69 / qpstep=4 / vbv_maxrate=62500 / vbv_bufsize=78125 / crf_max=0.0 / nal_hrd=none / filler=0 / ip_ratio=1.40 / aq=1:1.00
Язык : English
Default : Да
Forced : Нет

Аудио #1
Идентификатор : 2
Формат : AC-3
Формат/Информация : Audio Coding 3
Идентификатор кодека : A_AC3
Продолжительность : 2 ч. 3 м.
Вид битрейта : Постоянный
Битрейт : 384 Кбит/сек
Каналы : 6 каналов
Расположение каналов : Front: L C R, Side: L R, LFE
Частота : 48,0 КГц
Частота кадров : 31,250 кадров/сек (1536 SPF)
Битовая глубина : 16 бит
Метод сжатия : С потерями
Размер потока : 340 Мбайт (2%)
Заголовок : DUB Ист-Вест, Пифагор
Язык : Russian
ServiceKind/String : Complete Main
Default : Да
Forced : Нет

Аудио #2
Идентификатор : 3
Формат : AC-3
Формат/Информация : Audio Coding 3
Идентификатор кодека : A_AC3
Продолжительность : 2 ч. 3 м.
Вид битрейта : Постоянный
Битрейт : 384 Кбит/сек
Каналы : 6 каналов
Расположение каналов : Front: L C R, Side: L R, LFE
Частота : 48,0 КГц
Частота кадров : 31,250 кадров/сек (1536 SPF)
Битовая глубина : 16 бит
Метод сжатия : С потерями
Размер потока : 340 Мбайт (2%)
Заголовок : MVO
Язык : Russian
ServiceKind/String : Complete Main
Default : Нет
Forced : Нет

Аудио #3
Идентификатор : 4
Формат : AC-3
Формат/Информация : Audio Coding 3
Идентификатор кодека : A_AC3
Продолжительность : 2 ч. 3 м.
Вид битрейта : Постоянный
Битрейт : 448 Кбит/сек
Каналы : 6 каналов
Расположение каналов : Front: L C R, Side: L R, LFE
Частота : 48,0 КГц
Частота кадров : 31,250 кадров/сек (1536 SPF)
Битовая глубина : 16 бит
Метод сжатия : С потерями
Размер потока : 396 Мбайт (3%)
Заголовок : DVO Карусель
Язык : Russian
ServiceKind/String : Complete Main
Default : Нет
Forced : Нет

Аудио #4
Идентификатор : 5
Формат : AC-3
Формат/Информация : Audio Coding 3
Идентификатор кодека : A_AC3
Продолжительность : 2 ч. 3 м.
Вид битрейта : Постоянный
Битрейт : 384 Кбит/сек
Каналы : 6 каналов
Расположение каналов : Front: L C R, Side: L R, LFE
Частота : 48,0 КГц
Частота кадров : 31,250 кадров/сек (1536 SPF)
Битовая глубина : 16 бит
Метод сжатия : С потерями
Размер потока : 340 Мбайт (2%)
Заголовок : DVO DDV
Язык : Russian
ServiceKind/String : Complete Main
Default : Нет
Forced : Нет

Аудио #5
Идентификатор : 6
Формат : DTS
Формат/Информация : Digital Theater Systems
Идентификатор кодека : A_DTS
Продолжительность : 2 ч. 3 м.
Вид битрейта : Постоянный
Битрейт : 1509 Кбит/сек
Каналы : 6 каналов
Расположение каналов : Front: L C R, Side: L R, LFE
Частота : 48,0 КГц
Частота кадров : 93,750 кадра/сек (512 SPF)
Битовая глубина : 24 бит
Метод сжатия : С потерями
Размер потока : 1,30 Гбайт (9%)
Заголовок : Владимир Королёв
Язык : Russian
Default : Нет
Forced : Нет

Аудио #6
Идентификатор : 7
Формат : DTS
Формат/Информация : Digital Theater Systems
Идентификатор кодека : A_DTS
Продолжительность : 2 ч. 3 м.
Вид битрейта : Постоянный
Битрейт : 1509 Кбит/сек
Каналы : 6 каналов
Расположение каналов : Front: L C R, Side: L R, LFE
Частота : 48,0 КГц
Частота кадров : 93,750 кадра/сек (512 SPF)
Битовая глубина : 24 бит
Метод сжатия : С потерями
Размер потока : 1,30 Гбайт (9%)
Заголовок : original
Язык : English
Default : Нет
Forced : Нет

Текст #1
Идентификатор : 8
Формат : UTF-8
Идентификатор кодека : S_TEXT/UTF8
Идентификатор кодека/Информация : UTF-8 Plain Text
Продолжительность : 1 ч. 55 м.
Битрейт : 75 бит/сек
ElementCount : 1077
Размер потока : 63,7 Кбайт (0%)
Заголовок : русские
Язык : Russian
Default : Нет
Forced : Нет

Текст #2
Идентификатор : 9
Формат : UTF-8
Идентификатор кодека : S_TEXT/UTF8
Идентификатор кодека/Информация : UTF-8 Plain Text
Продолжительность : 1 ч. 55 м.
Битрейт : 57 бит/сек
ElementCount : 1352
Размер потока : 49,2 Кбайт (0%)
Заголовок : английские
Язык : English
Default : Нет
Forced : Нет

Меню
00:00:00.000 : en:00:00:00.000
00:04:50.499 : en:00:04:50.499
00:13:01.072 : en:00:13:01.072
00:24:07.988 : en:00:24:07.988
00:30:08.056 : en:00:30:08.056
00:36:34.901 : en:00:36:34.901
00:48:09.845 : en:00:48:09.845
01:01:12.627 : en:01:01:12.627
01:06:24.480 : en:01:06:24.480
01:13:21.397 : en:01:13:21.397
01:20:17.396 : en:01:20:17.396
01:26:10.624 : en:01:26:10.624
01:33:58.842 : en:01:33:58.842
01:42:08.873 : en:01:42:08.873
01:47:29.485 : en:01:47:29.485
01:51:46.325 : en:01:51:46.325
01:57:22.661 : en:01:57:22.661



Скачать Цена страха через торрент https://a.radikal.ru/a37/1808/94/cd2dacb69857.png Скачать, смотреть онлайн Цена страха бесплантно в хорошем качестве О фильме: Когда президент России внезапно умирает, его пост занимает человек, о котором общественности известно достаточно мало. Именно ... 9.3 10 4
Info! Золотая раздача, скачанное не засчитывается.
Торрент: Зарегистрирован [2018-08-31 05:42] · скачан: 34 раз
Статус: √ проверено
Размер: 14.79 GB
Как cкачать? Как скачать Цена страха через торрент | UTorrent

% Раздел Тема Автор DL S | L
Фильмы [HD 720p, 1080p] (Хороший звук DUB, MVO) [ 5.99 GB ] Цена страха / The Sum of All Fears | DUB | 720p by msltel msltel Скачать
1 | 0

28-11-2019 20:33  

Отключить вcю реклaмy на сайте

03-09-2018 00:56 Цена страха Скачать торрент  

Один раз можно глянуть.
Упростили все что можно и нельзя.



    Дорогой пользователь! Огромная просьба, поблагодарите релизера, оцените раздачу и оставьте свои комментарий, если Вы скачали Цена страха через торрент бесплатно!!
    Комментировать посты могут только пользователи прошедшие не сложную регистрацию
    Показать сообщения:    


    Цена страха через торрент
    Скачать бесплатно Цена страха
    Цена страха скачать торрент
    Цена страха смотреть онлайн
    Cкачать фильм Цена страха бесплатно
    Цена страха скачать торрент в хорошем качестве
    Цена страха смотреть онлайн бесплатно в хорошем качестве
    Вы не можете начинать темы
    Вы не можете отвечать на сообщения
    Вы не можете редактировать свои сообщения
    Вы не можете удалять свои сообщения
    Вы не можете голосовать в опросах
    Вы не можете прикреплять файлы к сообщениям
    Вы можете скачивать файлы