Marvel's Avengers Deluxe Edition (супер цена) 159р. Внимание количество ограничено!!!

2 сезон

iTunes

iTunes

1

iTunes

iTunes

iTunes

WEBRip

iTunes

30
pack

Новость дня

ВАЖНО

!!Акция!!

Alien_RageХит недели

RePack

Horizon Zero Dawn

ИГРА 18+

pack

RePack

jed

!!Акция!!

Alien_Rage

RePack

fifa19

RePack

Assassins Creed: Odyssey

RePack

NEED FOR SPEED™ PAYBACK

4 сезон

9 сезон

Бесстыжие 9 сезон

Все сериалы

все сериалы на PB.wtf

RePack

FAR CRY 5
  

Убежище дьявола / El habitante (Гильермо Амоедо) [2017, ужасы, WEB-DL 720p] DUB [Line] pb.wtf

Убежище дьявола через торрент pb.wtf

Размер: 3.6 GB | Добавлен: 2 года назад | Торрент скачан:74 раза
Скачать  

31-08-2018 10:00 Убежище дьявола Скачать торрент  

Убежище дьявола / El habitante
Год выпуска: 2017
Страна: Мексика
Жанр: ужасы
Продолжительность: 01:37:11
Перевод: Дублированный| Line
Субтитры: отсутствуют

Режиссер: Гильермо Амоедо

rating

В ролях:

Мария Эволи, Ванесса Рестрепо, Карла Аделл, Габриела де ла Гарса, Флавио Медина, Фернандо Бесерриль, Наташа Кубриа, Арнольдо Пикассо, Лиз Дьеппа, Шира Барзилай

Описание:

Три грабительницы забираются ночью на виллу влиятельного сенатора. Их не смущает отсутствие ни прислуги, ни охраны. Хозяин дома и его жена связаны, их сейф опустошен. В подвале, откуда слышится подозрительный шум, девицы находят парализованную дочь сенатора. Девочка умоляет о помощи: она привязана к кровати и, похоже, её пытали. Но грабительницы и предположить не могли, что, пожалев несчастное дитя и освободив её от пут, они выпустят на волю самого дьявола. Возможно, теперь только священник сможет спасти несчастных от страшной участи.

Качество: WEB-DL 720p
Формат: MKV

Видео: h.264,4 917 kb/s, 1280x480
Аудио#1: Русский, (AC3, 2 ch, 384 Кбит/с)
скриншот  скриншот  скриншот  

Общее
Уникальный идентификатор : 246272517354471386986390651710184789083 (0xB9465C8F8A77C7CD9D0FFF74CBDE945B)
Полное имя : D:\El.habitante.2O17.D.WEB-DL.72Op_KOSHARA.mkv
Формат : Matroska
Версия формата : Version 2
Размер файла : 3,60 Гбайт
Продолжительность : 1 ч. 37 м.
Режим общего битрейта : Переменный
Общий поток : 5303 Кбит/сек
Дата кодирования : UTC 2018-08-29 05:55:19
Программа кодирования : mkvmerge v8.3.0 ('Over the Horizon') 64bit
Библиотека кодирования : libebml v1.3.1 + libmatroska v1.4.2

Видео
Идентификатор : 1
Формат : AVC
Формат/Информация : Advanced Video Codec
Профиль формата : High@L4.1
Параметр CABAC формата : Да
Параметр RefFrames формата : 4 кадра
Идентификатор кодека : V_MPEG4/ISO/AVC
Продолжительность : 1 ч. 37 м.
Вид битрейта : Переменный
Битрейт : 4917 Кбит/сек
Максимальный битрейт : 5500 Кбит/сек
Ширина : 1280 пикселей
Высота : 480 пикселей
Соотношение сторон : 2,667
Режим частоты кадров : Постоянный
Частота кадров : 23,976 (24000/1001) кадра/сек
Стандарт вещания : Component
Цветовое пространство : YUV
Субдискретизация насыщенности : 4:2:0
Битовая глубина : 8 бит
Тип развёртки : Прогрессивная
Бит/(Пиксели*Кадры) : 0.327
Размер потока : 3,27 Гбайт (91%)
Default : Да
Forced : Нет
Цветовой диапазон : Limited
Основные цвета : BT.709
Характеристики трансфера : BT.709
Коэффициенты матрицы : BT.709

Аудио
Идентификатор : 2
Формат : AC-3
Формат/Информация : Audio Coding 3
Расширение режима : CM (complete main)
Параметр Endianness формата : Big
Идентификатор кодека : A_AC3
Продолжительность : 1 ч. 37 м.
Вид битрейта : Постоянный
Битрейт : 384 Кбит/сек
Каналы : 2 канала
Расположение каналов : Front: L R
Частота : 48,0 КГц
Частота кадров : 31,250 кадров/сек (1536 spf)
Метод сжатия : С потерями
Размер потока : 267 Мбайт (7%)
Default : Да
Forced : Нет

pb.wtf



Скачать Убежище дьявола через торрент http://img11.lostpic.net/2018/08/31/32369de18d0aeed92d217c5ef5098e91.jpg Скачать фильм Убежище дьявола через торрент бесплантно в хорошем качестве Описание: Три грабительницы забираются ночью на виллу влиятельного сенатора. Их не смущает отсутствие ни прислуги, ни охраны. Хозяин дома и ... 10 10 2
Торрент: Зарегистрирован [2018-08-31 10:00] · скачан: 74 раз
Статус: T временная
Размер: 3.6 GB
Как cкачать? Как скачать Убежище дьявола через торрент | qTorrent

% Раздел Тема Автор DL S | L
T Фильмы [HD 720p, 1080p] (Хороший звук DUB, MVO) [ 5.85 GB ] Убежище дьявола / El habitante [2018 BDRip 1080p] killermax2013 Скачать
1 | 0
T Фильмы (мультфильмы) cо спонсором показа (Новинки AVI/MKV) [ 3.89 GB ] Убежище дьявола / El habitante [2017 WEB-DL 1080p] DUB [Line] bober100 Скачать
1 | 0
T Фильмы (мультфильмы) cо спонсором показа (Новинки AVI/MKV) [ 1.35 GB ] Убежище дьявола / El habitante [2017 WEB-DLRip] DUB [Line] bober100 Скачать
1 | 0

28-11-2019 20:33  

Отключить всю рекламу на сайте

    Дорогой пользователь! Огромная просьба, поблагодарите релизера, оцените раздачу и оставьте свои комментарий, если Вы скачали Убежище дьявола через торрент бесплатно! Внесите свою лепту в развитие PiratBit!
    Комментировать посты могут только пользователи прошедшие не сложную регистрацию
    Показать сообщения:    

    Убежище дьявола через торрент
    Скачать бесплатно Убежище дьявола
    Убежище дьявола скачать торрент
    Убежище дьявола смотреть онлайн
    Cкачать фильм Убежище дьявола бесплатно
    Убежище дьявола скачать торрент в хорошем качестве
    Убежище дьявола смотреть онлайн бесплатно в хорошем качестве


    Вы не можете начинать темы
    Вы не можете отвечать на сообщения
    Вы не можете редактировать свои сообщения
    Вы не можете удалять свои сообщения
    Вы не можете голосовать в опросах
    Вы не можете прикреплять файлы к сообщениям
    Вы можете скачивать файлы