новый адрес
Мега распродажа FORZA HORIZON 4 ULTIMATE+ВСЕ DLC+ОНЛАЙН всего за 499р. 349 руб. (супер цена). Внимание количество ограничено!!!

iTunes

1+1

iTunes

мы

iTunes

1

iTunes

Чернобыль

iTunes

Ральф против интернета

Лицензия

ПШазам

Лицензия

Игра престолов

Лицензия

30
pack

ВАЖНО

!!Акция!!

Alien_RageХит недели

RePack

Resident Evil 21

ИГРА 18+

pack

RePack

Metro:Exodus

!!Акция!!

Alien_Rage

RePack

fifa19

RePack

Assassins Creed: Odyssey

RePack

NEED FOR SPEED™ PAYBACK

3 сезон

9 сезон

Бесстыжие 9 сезон

Все сериалы

все сериалы на PB.wtf

RePack

FAR CRY 5
Ребята, катастрофически не хватает 1900р. для оплаты серверов за Октябрь (всвязи с блокировками трафик упал в 3 раза), 1-2р., выручайте.
  

Полосатый рейс (Владимир Фетин) [1961, СССР, комедия, приключения, семейный, BDRip от AVP Studio] pb.wtf

Полосатый рейс через торрент pb.wtf

Размер: 1.09 GB | Добавлен: 1 год 2 мес. назад | Торрент скачан:14 раз
Скачать  

31-08-2018 10:35 Полосатый рейс Скачать торрент  

Полосатый рейс
Страна: СССР
Год выпуска: 1961
Студия: Ленфильм

Жанр: комедия, приключения, семейный
Продолжительность: 01:27:08

Перевод: не требуется
Оригинальная аудиодорожка: русский
Cубтитры: нет

Режиссер: Владимир Фетин

В ролях:
Алексей Грибов (капитан), Иван Дмитриев (старпом), Маргарита Назарова (Марианна), Евгений Леонов (Шулейкин), Владимир Белокуров (боцман), Николай Волков (агент), Александр Бениаминов (укротитель), Аркадий Трусов (кок), Алексей Смирнов (Кныш), Алексей Кожевников (радист), П. Алябин, Алиса Фрейндлих (помощница Шулейкина в буфете цирка)
Дублёры: Галина Короткевич (Марианна), Владимир Трошин (боцман), Ефим Копелян (агент)...
Об актёрах подробней

Описание:
На советский теплоход погрузили опасный груз - тигров и львов, а сопровождать приставили буфетчика... Во время плавания маленькая обезьянка, подаренная капитану, открывает клетки. Хищники выходят на свободу, вся команда в ужасе разбегается. И только племяннице капитана удается спасти положение, укротив диких зверей...

Исходник: Blu-ray 1080p
Тип релиза: BDRip
Контейнер: AVI

Видео: 720x528 (1,364:1), 23,976 fps, XviD ~ 1331 kbps avg, 0.146 bit/pixel
Аудио: 48 kHz, AC3, 6 ch, 448.00 kbps

Раздача от:
Общее
Полное имя : Polosatyy.reys.1961.BDRip_[New-team]_by_AVP_Studio.avi
Формат : AVI
Формат/Информация : Audio Video Interleave
Размер файла : 1,09 Гбайт
Продолжительность : 1 ч. 27 м.
Общий поток : 1789 Кбит/сек
Программа кодирования : VirtualDubMod 1.5.10.3 | www.virtualdub-fr.org || (build 2550/release)
Библиотека кодирования : VirtualDubMod build 2550/release

Видео
Идентификатор : 0
Формат : MPEG-4 Visual
Профиль формата : Advanced Simple@L5
Настройки формата : BVOP1 / Custom Matrix
Параметр BVOP формата : 1
Параметр QPel формата : Нет
Параметр GMC формата : Без точки перехода
Параметр матрицы формата : Выборочная
Идентификатор кодека : XVID
Идентификатор кодека/Подсказка : XviD
Продолжительность : 1 ч. 27 м.
Битрейт : 1331 Кбит/сек
Ширина : 720 пикселей
Высота : 528 пикселей
Соотношение сторон : 1,364:1
Частота кадров : 23,976 (24000/1001) кадра/сек
Цветовое пространство : YUV
Субдискретизация насыщенности : 4:2:0
Битовая глубина : 8 бит
Тип развёртки : Прогрессивная
Метод сжатия : С потерями
Бит/(Пиксели*Кадры) : 0.146
Размер потока : 830 Мбайт (74%)
Библиотека кодирования : XviD 73

Аудио
Идентификатор : 1
Формат : AC-3
Формат/Информация : Audio Coding 3
Идентификатор кодека : 2000
Продолжительность : 1 ч. 27 м.
Вид битрейта : Постоянный
Битрейт : 448 Кбит/сек
Каналы : 6 каналов
Расположение каналов : Front: L C R, Side: L R, LFE
Частота : 48,0 КГц
Частота кадров : 31,250 кадров/сек (1536 SPF)
Битовая глубина : 16 бит
Метод сжатия : С потерями
Размер потока : 279 Мбайт (25%)
Выравнивание : Разделение по промежуткам
Продолжительность промежутка : 42 мс. (1,00 видеокадр)
Время предзагрузки промежутка : 500 мс
pb.wtf



Скачать Полосатый рейс через торрент http://picplus.ru/img/1808/29/477663a4.png Скачать фильм Полосатый рейс через торрент бесплантно в хорошем качестве Описание:На советский теплоход погрузили опасный груз - тигров и львов, а сопровождать приставили буфетчика... Во время плавания маленькая ... 10 10 2
Info! Золотая раздача, скачанное не засчитывается.
Торрент: Зарегистрирован [2018-08-31 10:35] · скачан: 14 раз
Статус: √ проверено
Размер: 1.09 GB
Как cкачать? Как скачать Полосатый рейс через торрент | qTorrent

% Раздел Тема Автор DL S | L
Кино СССР [ 1.46 GB ] Полосатый рейс [1961 СССР BDRip-AVC от AVP Studio] AVP Studio Скачать
1 | 0
Кино СССР [ 2.18 GB ] Полосатый рейс [1961 СССР BDRip 720p от AVP Studio] AVP Studio Скачать
1 | 0
Наши фильмы (Blu-ray, BD-Remux, HDDVD) [ 36.1 GB ] Полосатый рейс [1961 СССР Blu-ray 1080p] Messa-fan Скачать
1 | 0
Наши фильмы (Blu-ray, BD-Remux, HDDVD) [ 14.33 GB ] Полосатый рейс [1961 СССР BD Remux] Ворон Скачать
1 | 0
Кино СССР [ 4.16 GB ] Полосатый рейс [1961 DVD5] =GAS= Скачать
1 | 0


>> Регистрируемся здесь <<






Отзывы и комментарии о схеме читаем и пишем здесь: ---> Отзывы и комментарии о схеме

Новые благодарочки в телеграм довольных пользователей:
скриншот   скриншот   скриншот   скриншот   скриншот
    Дорогой пользователь! Огромная просьба, поблагодарите релизера, оцените раздачу и оставьте свои комментарий, если Вы скачали Полосатый рейс через торрент бесплатно! Внесите свою лепту в развитие PiratBit!
    Комментировать посты могут только пользователи прошедшие не сложную регистрацию
    Показать сообщения:    

    Полосатый рейс через торрент
    Скачать бесплатно Полосатый рейс
    Полосатый рейс скачать торрент
    Полосатый рейс смотреть онлайн
    Cкачать фильм Полосатый рейс бесплатно
    Полосатый рейс скачать торрент в хорошем качестве
    Полосатый рейс смотреть онлайн бесплатно в хорошем качестве


    Вы не можете начинать темы
    Вы не можете отвечать на сообщения
    Вы не можете редактировать свои сообщения
    Вы не можете удалять свои сообщения
    Вы не можете голосовать в опросах
    Вы не можете прикреплять файлы к сообщениям
    Вы можете скачивать файлы