>

5.6

iTunes

7.4

MVO

5.7

MVO

1

7.4

1 сезон

6.8

iTunes

7.2

1 сезон

13

6.7

1 сезон

8.3

RePack

30

Deluxe

pack

9.9

Лицензия

ВАЖНО

ИГРА 18+

pack

7.3

RePack

MK11

7.7

RePack

jed

7.8

RePack

fifa19

8.5

RePack

RDR2

RePack

NEED FOR SPEED™ PAYBACK

4 сезон

9 сезон

Бесстыжие 9 сезон

Все сериалы

все сериалы на PB.wtf

RePack

FAR CRY 5

Anonymous, доброе утро, мы катастрофически не успеваем собрать деньги на оплату серверов, помогите нам пожалуйста 5,10,15р., для нас важна любая помощь . В качестве благодарности мы отключим Вам всю рекламу на сайте (укажите свой ник в строку Ваше имя)!

×
  
Magnet ссылка

Полосатый рейс (Владимир Фетин) [1961, СССР, комедия, приключения, семейный, BDRip 720p от AVP Studio] pb.wtf

Полосатый рейс через торрент pb.wtf

Размер: 2.18 GB | Добавлен: 3 года назад | Торрент скачан:31 раз
Смотреть онлайн Полосатый рейс | Скачать    Ребята, помогите собрать деньги на оплату серверов!!!

31-08-2018 10:37 Полосатый рейс Скачать торрент  

Полосатый рейс
Страна: СССР
Год выпуска: 1961
Студия: Ленфильм

Жанр: комедия, приключения, семейный
Продолжительность: 01:27:08

Перевод: не требуется
Оригинальная аудиодорожка: русский
Cубтитры: нет

Режиссер: Владимир Фетин

В ролях:
Алексей Грибов (капитан), Иван Дмитриев (старпом), Маргарита Назарова (Марианна), Евгений Леонов (Шулейкин), Владимир Белокуров (боцман), Николай Волков (агент), Александр Бениаминов (укротитель), Аркадий Трусов (кок), Алексей Смирнов (Кныш), Алексей Кожевников (радист), П. Алябин, Алиса Фрейндлих (помощница Шулейкина в буфете цирка)
Дублёры: Галина Короткевич (Марианна), Владимир Трошин (боцман), Ефим Копелян (агент)...
Об актёрах подробней

Описание:
На советский теплоход погрузили опасный груз - тигров и львов, а сопровождать приставили буфетчика... Во время плавания маленькая обезьянка, подаренная капитану, открывает клетки. Хищники выходят на свободу, вся команда в ужасе разбегается. И только племяннице капитана удается спасти положение, укротив диких зверей...

Исходник: Blu-ray 1080p
Тип релиза: BDRip 720p
Контейнер: MKV

Видео: 988x720 (1,372:1), 23,976 fps, H264 ~ 3130 kbps avg, 0.184 bit/pixel
Аудио: 48 kHz, AC3, 6 ch, 448.00 kbps

Раздача от:
Общее
Полное имя : Polosatyy.reys.1961.BDRip-720p_[New-team]_by_AVP_Studio.mkv
Формат : Matroska
Версия формата : Version 2
Размер файла : 2,18 Гбайт
Продолжительность : 1 ч. 27 м.
Общий поток : 3580 Кбит/сек
Дата кодирования : UTC 2018-08-21 18:18:55
Программа кодирования : mkvmerge v6.1.0 ('Old Devil') built on Mar 4 2013 09:10:42
Библиотека кодирования : libebml v1.3.0 + libmatroska v1.4.0

Видео
Идентификатор : 1
Формат : AVC
Формат/Информация : Advanced Video Codec
Профиль формата : High@L4.1
Настройки формата : CABAC / 8 Ref Frames
Параметр CABAC формата : Да
Параметр RefFrames формата : 8 кадров
Идентификатор кодека : V_MPEG4/ISO/AVC
Продолжительность : 1 ч. 27 м.
Битрейт : 3130 Кбит/сек
Ширина : 988 пикселей
Высота : 720 пикселей
Соотношение сторон : 1,372
Режим частоты кадров : Постоянный
Частота кадров : 23,976 (24000/1001) кадра/сек
Цветовое пространство : YUV
Субдискретизация насыщенности : 4:2:0
Битовая глубина : 8 бит
Тип развёртки : Прогрессивная
Бит/(Пиксели*Кадры) : 0.184
Размер потока : 1,86 Гбайт (85%)
Библиотека кодирования : x264 core 130 r2273 b3065e6
Настройки программы : cabac=1 / ref=8 / deblock=1:-3:-3 / analyse=0x3:0x133 / me=umh / subme=10 / psy=1 / psy_rd=1.00:0.00 / mixed_ref=1 / me_range=32 / chroma_me=1 / trellis=2 / 8x8dct=1 / cqm=0 / deadzone=21,11 / fast_pskip=1 / chroma_qp_offset=-2 / threads=6 / lookahead_threads=1 / sliced_threads=0 / nr=0 / decimate=0 / interlaced=0 / bluray_compat=0 / constrained_intra=0 / bframes=8 / b_pyramid=2 / b_adapt=2 / b_bias=0 / direct=3 / weightb=1 / open_gop=0 / weightp=2 / keyint=240 / keyint_min=24 / scenecut=40 / intra_refresh=0 / rc=2pass / mbtree=0 / bitrate=3130 / ratetol=1.0 / qcomp=0.60 / qpmin=0 / qpmax=69 / qpstep=4 / cplxblur=20.0 / qblur=0.5 / ip_ratio=1.40 / pb_ratio=1.30 / aq=1:1.00
Default : Да
Forced : Нет

Аудио
Идентификатор : 2
Формат : AC-3
Формат/Информация : Audio Coding 3
Идентификатор кодека : A_AC3
Продолжительность : 1 ч. 27 м.
Вид битрейта : Постоянный
Битрейт : 448 Кбит/сек
Каналы : 6 каналов
Расположение каналов : Front: L C R, Side: L R, LFE
Частота : 48,0 КГц
Частота кадров : 31,250 кадров/сек (1536 SPF)
Битовая глубина : 16 бит
Метод сжатия : С потерями
Размер потока : 279 Мбайт (13%)
Default : Да
Forced : Нет
pb.wtf



Скачать Полосатый рейс через торрент http://picplus.ru/img/1808/29/477663a4.png Скачать, смотреть онлайн Полосатый рейс бесплантно в хорошем качестве Описание:На советский теплоход погрузили опасный груз - тигров и львов, а сопровождать приставили буфетчика... Во время плавания маленькая ... 10 10 4
Info! Золотая раздача, скачанное не засчитывается.
Торрент: Зарегистрирован [2018-08-31 10:37] · скачан: 31 раз
Статус: √ проверено
Размер: 2.18 GB
Как cкачать? Как скачать Полосатый рейс через торрент | UTorrent

% Раздел Тема Автор DL S | L
Кино СССР [ 1.46 GB ] Полосатый рейс [1961 СССР BDRip-AVC от AVP Studio] AVP Studio Скачать
1 | 0
Кино СССР [ 1.09 GB ] Полосатый рейс [1961 СССР BDRip от AVP Studio] AVP Studio Скачать
1 | 0
Наши фильмы (Blu-ray, BD-Remux, HDDVD) [ 36.1 GB ] Полосатый рейс [1961 СССР Blu-ray 1080p] Messa-fan Скачать
1 | 0
Наши фильмы (Blu-ray, BD-Remux, HDDVD) [ 14.33 GB ] Полосатый рейс [1961 СССР BD Remux] Ворон Скачать
1 | 0
Кино СССР [ 4.16 GB ] Полосатый рейс [1961 DVD5] =GAS= Скачать
1 | 0

28-11-2019 20:33  

Отключить всю рекламу на сайте

    Дорогой пользователь! Огромная просьба, поблагодарите релизера, оцените раздачу и оставьте свои комментарий, если Вы скачали Полосатый рейс через торрент бесплатно!
    Комментировать посты могут только пользователи прошедшие не сложную регистрацию
    Показать сообщения:    

    Полосатый рейс через торрент
    Скачать бесплатно Полосатый рейс
    Полосатый рейс скачать торрент
    Полосатый рейс смотреть онлайн
    Cкачать фильм Полосатый рейс бесплатно
    Полосатый рейс скачать торрент в хорошем качестве
    Полосатый рейс смотреть онлайн бесплатно в хорошем качестве


    Вы не можете начинать темы
    Вы не можете отвечать на сообщения
    Вы не можете редактировать свои сообщения
    Вы не можете удалять свои сообщения
    Вы не можете голосовать в опросах
    Вы не можете прикреплять файлы к сообщениям
    Вы можете скачивать файлы