Ссылка на приватное зеркало нашего сайта всего за 1$. Внимание количество ограничено!!!

2 сезон

iTunes

1 сезон

1

2 сезон

2 сезон

iTunes

1 сезон

RePack

30

Новинка

ВАЖНО

ИГРА 18+

pack

RePack

MK11
pack

Забери бонус

RePack

jed

!!Акция!!

Alien_Rage

RePack

fifa19

RePack

Assassins Creed: Odyssey

RePack

NEED FOR SPEED™ PAYBACK

4 сезон

9 сезон

Бесстыжие 9 сезон

Все сериалы

все сериалы на PB.wtf

RePack

FAR CRY 5
  

В лучшем мире / В лучшем месте / The Good Place / Сезон: 2 / Серии: 1-13 из 13 (Джонатан Крисел) [2017, Фантастика, комедия, WEB-DLRip] MVO [Good People] pb.wtf

В лучшем мире через торрент pb.wtf

Размер: 3.18 GB | Добавлен: 2 года 2 мес. назад | Торрент скачан:14 раз
Скачать  

31-08-2018 15:55 В лучшем мире Скачать торрент  

В лучшем мире / В лучшем месте / The Good Place Оригинальное название: The Good Place
Русское название: В лучшем месте
Год выпуска: 2017
Страна: США
Жанр: Фантастика, комедия
Продолжительность: ~ 00:20:00
Перевод: Профессиональный (многоголосый закадровый) | Студия Good People
Субтитры: отсутствуют

Режиссёр: Дрю Годдард

В ролях:

Кристен Белл, Тед Дэнсон, Уильям Джексон Харпер, Джамиля Джамиль, Мэнни Йакинто

Описание:

Главная героиня этой комедии, Элеонор Шеллстроп, весьма интересная женщина. Хотя, на первый взгляд, и не скажешь, что в ней есть что-то необычное. Девушка неожиданно для себя попадает в загробный мир, где узнает, что при жизни была далеко не хорошим человеком. После этого Элеонор мечтает лишь об одном - как можно скорее измениться и стать лучше. Ее проводник-наставник дает шанс героини на новую жизнь. Элеонор пытается отречься от всего того, что происходило с ней до этого момента. Теперь она появляется на Земле совершенно в другом образе. Женщина пытается быть хорошей и примерной, но старые привычки дают о себе знать.

rating Сэмпл

Качество: WEB-DLRip
Формат: AVI

Видео: XviD, ~ 1400 kbps, 720x400 (16:9), 23.976 fps
Аудио 1: MP3, 48,0 КГц, 2 ch, 128 kbps - Rus
Аудио 2: MP3, 48,0 КГц, 2 ch, 128 kbps - Eng


Реклама: Присутствует звуковая (два раза в начале и конце по 12 сек.)
Общее
Полное имя                               : F:\GoodPeople\The Good Place. Season 2 (WEBDLRip l 400p l Good People)\The.Good.Place.S02E01-02.WEB-DLRip.Rus.Eng.GoodPeople.avi
Формат                                   : AVI
Формат/Информация                        : Audio Video Interleave
Размер файла                             : 501 Мбайт
Продолжительность                        : 42 м. 37 с.
Общий поток                              : 1643 Кбит/сек
Программа кодирования                    : VirtualDubMod 1.5.10.3 | www.virtualdub-fr.org || (build 2550/release)
Библиотека кодирования                   : VirtualDubMod build 2550/release

Видео
Идентификатор                            : 0
Формат                                   : MPEG-4 Visual
Профиль формата                          : Advanced Simple@L5
Параметр BVOP формата                    : 1
Параметр QPel формата                    : Нет
Параметр GMC формата                     : Без точки перехода
Параметр матрицы формата                 : Default (MPEG)
Идентификатор кодека                     : XVID
Идентификатор кодека/Подсказка           : XviD
Продолжительность                        : 42 м. 37 с.
Битрейт                                  : 1373 Кбит/сек
Ширина                                   : 720 пикселей
Высота                                   : 400 пикселей
Соотношение сторон                       : 16:9
Частота кадров                           : 23,976 (24000/1001) кадра/сек
Цветовое пространство                    : YUV
Субдискретизация насыщенности            : 4:2:0
Битовая глубина                          : 8 бит
Тип развёртки                            : Прогрессивная
Метод сжатия                             : С потерями
Бит/(Пиксели*Кадры)                      : 0.199
Размер потока                            : 418 Мбайт (84%)
Библиотека кодирования                   : XviD 73

Аудио #1
Идентификатор                            : 1
Формат                                   : MPEG Audio
Версия формата                           : Version 1
Профиль формата                          : Layer 3
Режим                                    : Joint stereo
Расширение режима                        : MS Stereo
Идентификатор кодека                     : 55
Идентификатор кодека/Подсказка           : MP3
Продолжительность                        : 42 м. 37 с.
Вид битрейта                             : Постоянный
Битрейт                                  : 128 Кбит/сек
Каналы                                   : 2 канала
Частота                                  : 48,0 КГц
Метод сжатия                             : С потерями
Размер потока                            : 39,0 Мбайт (8%)
Выравнивание                             : Соединение по промежуткам
Продолжительность промежутка             : 42  мс. (1,00 видеокадр)
Время предзагрузки промежутка            : 504  мс.

Аудио #2
Идентификатор                            : 2
Формат                                   : MPEG Audio
Версия формата                           : Version 1
Профиль формата                          : Layer 3
Режим                                    : Joint stereo
Расширение режима                        : MS Stereo
Идентификатор кодека                     : 55
Идентификатор кодека/Подсказка           : MP3
Продолжительность                        : 42 м. 37 с.
Вид битрейта                             : Постоянный
Битрейт                                  : 128 Кбит/сек
Каналы                                   : 2 канала
Частота                                  : 48,0 КГц
Метод сжатия                             : С потерями
Размер потока                            : 39,0 Мбайт (8%)
Выравнивание                             : Соединение по промежуткам
Продолжительность промежутка             : 42  мс. (1,00 видеокадр)
Время предзагрузки промежутка            : 504  мс.
скриншот  скриншот  скриншот  
Внимание! Раздача ведётся путём добавления новых серий; при каждом добавлении создётся новый торрент. Чтобы начать докачку новой серии, пользователям необходимо сделать следующее:

Остановить скачивание.
Удалить старый торрент у себя из клиента (старые серии удалять не надо).
Скачать новый торрент и запустить его у себя в клиенте вместо старого, при этом указать клиенту путь в старую папку куда и должно происходить скачивание новых серий.

Ваш клиент при этом должен произвести хеширование (проверку) старой папки (если не производит сам - помогите ему сделать это), и будет докачивать только те серии которых у вас ещё нет. Старые серии при этом не удаляются, а продолжают раздаваться!
Eсли вы уже удалили старые серии, то предотвратить повторную закачку старых серий можно, отжав галочку в соответсвующих местах при запуске нового торрента. По возможности, желательно не удалять старые серии как можно дольше чтобы релизёр не столько продолжал раздавать старые серии, а смог сконцентрироваться на новых.
pb.wtf



Скачать В лучшем мире через торрент http://i069.radikal.ru/1710/b3/229a3339cd78.jpg Скачать фильм В лучшем мире через торрент бесплантно в хорошем качестве Описание: Главная героиня этой комедии, Элеонор Шеллстроп, весьма интересная женщина. Хотя, на первый взгляд, и не скажешь, что в ней есть ... 10 10 2
Торрент: Зарегистрирован [2018-08-31 15:55] · скачан: 14 раз
Статус: √ проверено
Размер: 3.18 GB
Как cкачать? Как скачать В лучшем мире через торрент | qTorrent

% Раздел Тема Автор DL S | L
Зарубежные сериалы [ 9.51 GB ] В лучшем мире / В лучшем месте / The Good Place / Сезон: 2 / Серии: 1-13 из 13 [2017 WEB-DL 720p] MVO [студия Good People] bober100 Скачать
2 | 0

28-11-2019 20:33  

Отключить всю рекламу на сайте

    Дорогой пользователь! Огромная просьба, поблагодарите релизера, оцените раздачу и оставьте свои комментарий, если Вы скачали В лучшем мире через торрент бесплатно! Внесите свою лепту в развитие PiratBit!
    Комментировать посты могут только пользователи прошедшие не сложную регистрацию
    Показать сообщения:    

    В лучшем мире через торрент
    Скачать бесплатно В лучшем мире
    В лучшем мире скачать торрент
    В лучшем мире смотреть онлайн
    Cкачать фильм В лучшем мире бесплатно
    В лучшем мире скачать торрент в хорошем качестве
    В лучшем мире смотреть онлайн бесплатно в хорошем качестве


    Вы не можете начинать темы
    Вы не можете отвечать на сообщения
    Вы не можете редактировать свои сообщения
    Вы не можете удалять свои сообщения
    Вы не можете голосовать в опросах
    Вы не можете прикреплять файлы к сообщениям
    Вы можете скачивать файлы