2 сезон

iTunes

MVO

1

2 сезон

iTunes

iTunes

1 сезон

RePack

30

Новинка

ВАЖНО

ИГРА 18+

pack

RePack

MK11
pack

Легкие деньги

RePack

jed

RePack

fifa19

RePack

RDR2

RePack

NEED FOR SPEED™ PAYBACK

4 сезон

9 сезон

Бесстыжие 9 сезон

Все сериалы

все сериалы на PB.wtf

RePack

FAR CRY 5

Anonymous, добрый вечер, мы не успеваем собрать деньги на оплату серверов за декабрь и январь, помогите нам пожалуйста в это трудное время. В качестве благодарности мы отключим Вам всю рекламу на сайте (укажите свой ник в строку Ваше имя)!

×
  
Magnet ссылка

Обитатели / The Lodgers (Брайан О'Мэлли) [2017, Ужасы, триллер, драма, мелодрама, WEB-DLRip-AVC] MVO [HDRezka Studio] pb.wtf

Обитатели через торрент pb.wtf

Размер: 1.58 GB | Добавлен: 2 года 4 мес. назад | Торрент скачан:321 раз
Скачать  

31-08-2018 17:04 Обитатели Скачать торрент  

Обитатели / The Lodgers
Год выпуска: 2017
Страна: Ирландия
Жанр: Ужасы, триллер, драма, мелодрама
Продолжительность: 01:32:14
Перевод: Профессиональный (многоголосый) | HDRezka Studio
Субтитры: Русские, английские

Режиссер: Брайан О'Мэлли

rating

В ролях: Шарлотта Вега, Дэвид Брэдли (I), Мо Данфорд, Билл Милнер, Юджин Саймон, Дирдри О'Кейн, Рошин Мёрфи, Эммет Келли, Элайджа Иган, Брендан О'Рурк

Описание: Близнецы Рэйчел и Эдвард — единственные наследники старинного поместья, о котором давно ходит мрачная молва. Поговаривают, будто дом проклят, и в нём поселилось нечто иное, что внушает людям злую волю. Непослушание карается страшными муками.

Разрушить древнее проклятие — безумная идея, но первая влюблённость и неутолимое влечение к молодому солдату толкают юную Рэйчел на отчаянный шаг.

Качество: WEB-DLRip-AVC
Формат: MKV

Видео: 1024x426 (2.40:1), 24.000 fps, x264 ~1 775 kbps avg, 0.170 bit/pixel
Аудио#1: 48 kHz, AC3 Dolby Digital, 2 (L,R) ch, ~192.00 kbps avg | RUS (HDRezka Studio)
Аудио#2: 48 kHz, AC3 Dolby Digital, 3/2 (L,C,R,l,r) + LFE ch, ~448.00 kbps avg | ENG
скриншот  скриншот  скриншот  скриншот  скриншот  

Общее
Уникальный идентификатор : 140196640170955365268003570654133679853 (0x6978E407965743FEBA7BD3A10510F6ED)
Полное имя : F:\OlLanDGroup\The.Lodgers.2018.BDRip(AVC).OlLanDGroup.mkv
Формат : Matroska
Версия формата : Version 4 / Version 2
Размер файла : 1,58 Гбайт
Продолжительность : 1 ч. 34 м.
Общий поток : 2392 Кбит/сек
Название фильма : The.Lodgers.2018 #TorpedoUK#
Дата кодирования : UTC 2018-08-31 15:58:51
Программа кодирования : mkvmerge v25.0.0 ('Prog Noir') 64-bit
Библиотека кодирования : libebml v1.3.6 + libmatroska v1.4.9

Видео
Идентификатор : 1
Формат : AVC
Формат/Информация : Advanced Video Codec
Профиль формата : High@L4.1
Параметр CABAC формата : Да
Параметр ReFrames формата : 10 кадров
Идентификатор кодека : V_MPEG4/ISO/AVC
Продолжительность : 1 ч. 33 м.
Битрейт : 1775 Кбит/сек
Ширина : 1024 пикселя
Высота : 426 пикселей
Соотношение сторон : 2,40:1
Режим частоты кадров : Постоянный
Частота кадров : 24,000 кадра/сек
Цветовое пространство : YUV
Субдискретизация насыщенности : 4:2:0
Битовая глубина : 8 бит
Тип развёртки : Прогрессивная
Бит/(Пиксели*Кадры) : 0.170
Размер потока : 1,16 Гбайт (73%)
Библиотека кодирования : x264 core 146 r2538 121396c
Настройки программы : cabac=1 / ref=10 / deblock=1:-3:-3 / analyse=0x3:0x113 / me=umh / subme=11 / psy=1 / psy_rd=0.97:0.08 / mixed_ref=1 / me_range=48 / chroma_me=1 / trellis=2 / 8x8dct=1 / cqm=0 / deadzone=21,11 / fast_pskip=1 / chroma_qp_offset=-3 / threads=6 / lookahead_threads=1 / sliced_threads=0 / nr=0 / decimate=1 / interlaced=0 / bluray_compat=0 / constrained_intra=0 / bframes=10 / b_pyramid=2 / b_adapt=2 / b_bias=0 / direct=3 / weightb=1 / open_gop=0 / weightp=2 / keyint=240 / keyint_min=24 / scenecut=40 / intra_refresh=0 / rc_lookahead=40 / rc=2pass / mbtree=1 / bitrate=1775 / ratetol=1.0 / qcomp=0.60 / qpmin=0 / qpmax=69 / qpstep=4 / cplxblur=20.0 / qblur=0.5 / vbv_maxrate=50000 / vbv_bufsize=62500 / nal_hrd=none / filler=0 / ip_ratio=1.40 / aq=1:1.00
Язык : English
Default : Да
Forced : Нет

Аудио #1
Идентификатор : 2
Формат : AC-3
Формат/Информация : Audio Coding 3
Расширение режима : CM (complete main)
Параметр Endianness формата : Big
Идентификатор кодека : A_AC3
Продолжительность : 1 ч. 34 м.
Вид битрейта : Постоянный
Битрейт : 192 Кбит/сек
Каналы : 2 канала
Расположение каналов : Front: L R
Частота : 48,0 КГц
Частота кадров : 31,250 кадров/сек (1536 spf)
Битовая глубина : 16 бит
Метод сжатия : С потерями
Размер потока : 129 Мбайт (8%)
Заголовок : MVO [HDRezka Studio]
Язык : Russian
Default : Да
Forced : Нет

Аудио #2
Идентификатор : 3
Формат : AC-3
Формат/Информация : Audio Coding 3
Расширение режима : CM (complete main)
Параметр Endianness формата : Big
Идентификатор кодека : A_AC3
Продолжительность : 1 ч. 33 м.
Вид битрейта : Постоянный
Битрейт : 448 Кбит/сек
Каналы : 6 каналов
Расположение каналов : Front: L C R, Side: L R, LFE
Частота : 48,0 КГц
Частота кадров : 31,250 кадров/сек (1536 spf)
Битовая глубина : 16 бит
Метод сжатия : С потерями
Размер потока : 299 Мбайт (19%)
Заголовок : Original
Язык : English
Default : Нет
Forced : Нет

Текст #1
Идентификатор : 4
Формат : UTF-8
Идентификатор кодека : S_TEXT/UTF8
Идентификатор кодека/Информация : UTF-8 Plain Text
Продолжительность : 1 ч. 27 м.
Битрейт : 56 бит/сек
Count of elements : 733
Размер потока : 36,2 Кбайт (0%)
Заголовок : Full
Язык : Russian
Default : Нет
Forced : Нет

Текст #2
Идентификатор : 5
Формат : UTF-8
Идентификатор кодека : S_TEXT/UTF8
Идентификатор кодека/Информация : UTF-8 Plain Text
Продолжительность : 1 ч. 25 м.
Битрейт : 31 бит/сек
Count of elements : 656
Размер потока : 19,6 Кбайт (0%)
Заголовок : Full
Язык : English
Default : Нет
Forced : Нет

Текст #3
Идентификатор : 6
Формат : UTF-8
Идентификатор кодека : S_TEXT/UTF8
Идентификатор кодека/Информация : UTF-8 Plain Text
Продолжительность : 1 ч. 27 м.
Битрейт : 32 бит/сек
Count of elements : 717
Размер потока : 20,9 Кбайт (0%)
Заголовок : SDH
Язык : English
Default : Нет
Forced : Нет

Меню
00:00:00.000 : en:Chapter 1
00:12:19.000 : en:Chapter 2
00:25:10.000 : en:Chapter 3
00:35:22.000 : en:Chapter 4
00:48:01.000 : en:Chapter 5
01:00:02.000 : en:Chapter 6
01:10:31.000 : en:Chapter 7
01:21:57.000 : en:Chapter 8
01:29:00.000 : en:Chapter 9

pb.wtf



Скачать Обитатели через торрент http://img11.lostpic.net/2018/08/31/26efb6f7454fb3a6152f85571d391517.jpg Скачать фильм Обитатели через торрент бесплантно в хорошем качестве Описание: Близнецы Рэйчел и Эдвард — единственные наследники старинного поместья, о котором давно ходит мрачная молва. Поговаривают, будто ... 9 10 6
Торрент: Зарегистрирован [2018-08-31 17:04] · скачан: 321 раз
Статус: T временная
Размер: 1.58 GB
Как cкачать? Как скачать Обитатели через торрент | UTorrent

28-11-2019 20:33  

Отключить всю рекламу на сайте

    Дорогой пользователь! Огромная просьба, поблагодарите релизера, оцените раздачу и оставьте свои комментарий, если Вы скачали Обитатели через торрент бесплатно! Внесите свою лепту в развитие PiratBit!
    Комментировать посты могут только пользователи прошедшие не сложную регистрацию
    Показать сообщения:    

    Обитатели через торрент
    Скачать бесплатно Обитатели
    Обитатели скачать торрент
    Обитатели смотреть онлайн
    Cкачать фильм Обитатели бесплатно
    Обитатели скачать торрент в хорошем качестве
    Обитатели смотреть онлайн бесплатно в хорошем качестве


    Вы не можете начинать темы
    Вы не можете отвечать на сообщения
    Вы не можете редактировать свои сообщения
    Вы не можете удалять свои сообщения
    Вы не можете голосовать в опросах
    Вы не можете прикреплять файлы к сообщениям
    Вы можете скачивать файлы