Всегда рабочее зеркало без VPN и Proxy просто перед .vidak.icu напиши любое слово или цифру, Пример http://f8au.vidak.icu

Лицензия

MVO

1 сезон

1

1 сезон

iTunes

1 сезон

13

1 сезон

Deluxe

pack

Рекомендуем

Repack

30

ВАЖНО

RePack

MK11

RePack

jed

RePack

fifa19

RePack

RDR2

RePack

NEED FOR SPEED™ PAYBACK

Кинопоиск HD

6 сезон

 Острые козырьки 6 сезон

Все сериалы

все сериалы на PB.wtf

RePack

FAR CRY 5
  
Magnet ссылка

Джек Райан: Теория хаоса / Jack Ryan: Shadow Recruit (Кеннет Брана) [2014, Боевик, триллер, драма, UHD BDRemux 2160p] AVO [А.Гаврилов] +DUB [Лицензия] pb.wtf

Джек Райан: Теория хаоса через торрент pb.wtf

Размер: 45.3 GB | Добавлен: 3 года 11 мес. назад | Торрент скачан:26 раз
Смотреть онлайн Джек Райан: Теория хаоса | Скачать    Ребята, помогите собрать деньги на оплату серверов!!!

31-08-2018 17:23 Джек Райан: Теория хаоса Скачать торрент  

Джек Райан: Теория хаоса / Jack Ryan: Shadow Recruit
Год выпуска: 2014
Страна: США
Жанр: Боевик, триллер, драма
Продолжительность: 01:45:32
Перевод: Дублированный, Авторский
Субтитры: Русские, английские (Full, SDH)

Режиссер: Кеннет Брана

rating

В ролях:

Крис Пайн (Jack Ryan), Кира Найтли (Cathy Muller), Кеннет Брана (Viktor Cherevin), Кевин Костнер (Thomas Harper), Алек Утгофф (Aleksandr Borovsky), Джемма Чан (Amy Chang), Петер Андерссон (Dimitri Lemkov), Елена Великанова (Katya), Нонсо Анози (Embee Deng), Колм Фиор (Rob Behringer), Ленн Кудрявицки (Constantin), Сет Айотт (Teddy Hefferman)
Описание:

Рядовой аналитик ЦРУ Джек Райан приезжает в Москву, чтобы решить простую задачу: ему нужно проверить операции компании, принадлежащей миллиардеру Виктору Черевину. Но все усложняется, когда Райана пытаются убить. Теперь он вынужден защищаться с оружием в руках, вспоминая армейские навыки и неожиданно для себя оказываясь в роли настоящего спецагента. На помощь Джеку приходят маститый офицер спецслужб Харпер и внезапно оказавшаяся в Москве супруга Кэти. Но облегчит ли это миссию, которую теперь предстоит выполнить Райану, — предотвратить международный заговор, грозящий погрузить весь мир в хаос?

Качество: UHD BDRemux 2160p
Формат: MKV

Видео: HEVC HDR, 55.1 Mбит/с, 3840x2160, 23.976 кадр/с
Аудио#1: Русский (AC3, 6 ch, 640 Кбит/с) / Дублированный (Blu-ray EUR)
Аудио#2: Русский (AC3, 6 ch, 640 Кбит/с) / Авторский (Андрей Гаврилов)
Аудио#3: Английский (DTS-HD MA, 8 ch, 5217 Кбит/с)
скриншот  скриншот  скриншот  скриншот  скриншот  

Unique ID : 276399214054704383175700844613677420295 (0xCFF08D6339A1C9AFD663A4492FB90F07)
Complete name : D:uTorrentJack.Ryan.Shadow.Recruit.2014.BDRemux.2160p.HDR.MediaClub.mkv
Format : Matroska
Format version : Version 4 / Version 2
File size : 45.3 GiB
Duration : 1 h 45 min
Overall bit rate : 61.5 Mb/s
Encoded date : UTC 2018-08-27 09:07:27
Writing application : mkvmerge v25.0.0 ('Prog Noir') 64-bit
Writing library : libebml v1.3.6 + libmatroska v1.4.9
Cover : Yes
Attachments : cover.jpg

Video
ID : 1
Format : HEVC
Format/Info : High Efficiency Video Coding
Commercial name : HDR10
Format profile : Main [email protected]@High
Codec ID : V_MPEGH/ISO/HEVC
Duration : 1 h 45 min
Bit rate : 55.1 Mb/s
Width : 3 840 pixels
Height : 2 160 pixels
Display aspect ratio : 16:9
Frame rate mode : Constant
Frame rate : 23.976 (24000/1001) FPS
Color space : YUV
Chroma subsampling : 4:2:0 (Type 2)
Bit depth : 10 bits
Bits/(Pixel*Frame) : 0.277
Stream size : 40.7 GiB (90%)
Title : BDRemux.2160p.HDR by Silverok
Default : Yes
Forced : No
Color range : Limited
Color primaries : BT.2020
Transfer characteristics : PQ
Matrix coefficients : BT.2020 non-constant
Mastering display color primaries : Display P3
Mastering display luminance : min: 0.0001 cd/m2, max: 1000 cd/m2

Audio #1
ID : 2
Format : AC-3
Format/Info : Audio Coding 3
Codec ID : A_AC3
Duration : 1 h 45 min
Bit rate mode : Constant
Bit rate : 640 kb/s
Channel(s) : 6 channels
Channel positions : Front: L C R, Side: L R, LFE
Sampling rate : 48.0 kHz
Frame rate : 31.250 FPS (1536 SPF)
Bit depth : 16 bits
Compression mode : Lossy
Stream size : 483 MiB (1%)
Title : Дублированный (Blu-Ray)
Language : Russian
Service kind : Complete Main
Default : Yes
Forced : No

Audio #2
ID : 3
Format : AC-3
Format/Info : Audio Coding 3
Codec ID : A_AC3
Duration : 1 h 45 min
Bit rate mode : Constant
Bit rate : 448 kb/s
Channel(s) : 6 channels
Channel positions : Front: L C R, Side: L R, LFE
Sampling rate : 48.0 kHz
Frame rate : 31.250 FPS (1536 SPF)
Bit depth : 16 bits
Compression mode : Lossy
Stream size : 338 MiB (1%)
Title : Авторский (Гаврилов)
Language : Russian
Service kind : Complete Main
Default : No
Forced : No

Audio #3
ID : 4
Format : DTS
Format/Info : Digital Theater Systems
Format profile : MA / Core
Codec ID : A_DTS
Duration : 1 h 45 min
Bit rate mode : Variable / Constant
Bit rate : 5 217 kb/s / 1 509 kb/s
Channel(s) : 8 channels / 6 channels
Channel positions : Front: L C R, Side: L R, Back: L R, LFE / Front: L C R, Side: L R, LFE
Sampling rate : 48.0 kHz
Frame rate : 93.750 FPS (512 SPF)
Bit depth : 24 bits
Compression mode : Lossless / Lossy
Stream size : 3.85 GiB (8%)
Language : English
Default : No
Forced : No

Text #1
ID : 5
Format : UTF-8
Codec ID : S_TEXT/UTF8
Codec ID/Info : UTF-8 Plain Text
Duration : 1 h 44 min
Bit rate : 63 b/s
Count of elements : 1004
Stream size : 49.1 KiB (0%)
Title : Full
Language : Russian
Default : Yes
Forced : No

Text #2
ID : 6
Format : UTF-8
Codec ID : S_TEXT/UTF8
Codec ID/Info : UTF-8 Plain Text
Duration : 1 h 37 min
Bit rate : 55 b/s
Count of elements : 1239
Stream size : 39.7 KiB (0%)
Title : Full
Language : English
Default : No
Forced : No

Text #3
ID : 7
Format : UTF-8
Codec ID : S_TEXT/UTF8
Codec ID/Info : UTF-8 Plain Text
Duration : 1 h 37 min
Bit rate : 63 b/s
Count of elements : 1485
Stream size : 45.6 KiB (0%)
Title : SDH
Language : English
Default : No
Forced : No

Menu
00:00:00.000 : en:
00:05:45.470 : en:
00:12:02.471 : en:
00:18:11.006 : en:
00:23:38.792 : en:
00:31:19.794 : en:
00:40:26.298 : en:
00:48:47.466 : en:
00:57:28.069 : en:
01:06:19.642 : en:
01:13:07.466 : en:
01:21:53.867 : en:
01:27:07.096 : en:
01:35:21.507 : en:
01:38:55.054 : en:

pb.wtf



Скачать Джек Райан: Теория хаоса через торрент https://b.radikal.ru/b22/1808/a0/54e0d6e1d346.png Скачать, смотреть онлайн Джек Райан: Теория хаоса бесплантно в хорошем качестве Описание: Рядовой аналитик ЦРУ Джек Райан приезжает в Москву, чтобы решить простую задачу: ему нужно проверить операции компании, ... 10 10 3
Info! Золотая раздача, скачанное не засчитывается.
Торрент: Зарегистрирован [2018-08-31 17:23] · скачан: 26 раз
Статус: √ проверено
Размер: 45.3 GB
Как cкачать? Как скачать Джек Райан: Теория хаоса через торрент | UTorrent

% Раздел Тема Автор DL S | L
Ultra HD (UHD: 2K, 4K, 8K) — видео сверхвысокой чёткости [ 45.82 GB ] Джек Райан: Теория хаоса / Jack Ryan: Shadow Recruit [2013 UHD BDRemux 2160p] [Dolby Vision TV] sheker187 Скачать
1 | 0
Ultra HD (UHD: 2K, 4K, 8K) — видео сверхвысокой чёткости [ 60.43 GB ] Джек Райан: Теория хаоса / Jack Ryan: Shadow Recruit [2013 UHD Blu-ray 2160p] [HDR + Dolby Vision] sheker187 Скачать
1 | 0

28-11-2019 20:33  

Отключить вcю реклaмy на сайте

    Дорогой пользователь! Огромная просьба, поблагодарите релизера, оцените раздачу и оставьте свои комментарий, если Вы скачали Джек Райан: Теория хаоса через торрент бесплатно!
    Комментировать посты могут только пользователи прошедшие не сложную регистрацию
    Показать сообщения:    

    Джек Райан: Теория хаоса через торрент
    Скачать бесплатно Джек Райан: Теория хаоса
    Джек Райан: Теория хаоса скачать торрент
    Джек Райан: Теория хаоса смотреть онлайн
    Cкачать фильм Джек Райан: Теория хаоса бесплатно
    Джек Райан: Теория хаоса скачать торрент в хорошем качестве
    Джек Райан: Теория хаоса смотреть онлайн бесплатно в хорошем качестве


    Вы не можете начинать темы
    Вы не можете отвечать на сообщения
    Вы не можете редактировать свои сообщения
    Вы не можете удалять свои сообщения
    Вы не можете голосовать в опросах
    Вы не можете прикреплять файлы к сообщениям
    Вы можете скачивать файлы