Ссылка на приватное зеркало нашего сайта всего за 1$. Внимание количество ограничено!!!

2 сезон

iTunes

1 сезон

1

2 сезон

2 сезон

iTunes

1 сезон

RePack

30

Новинка

ВАЖНО

ИГРА 18+

pack

RePack

MK11
pack

Забери бонус

RePack

jed

!!Акция!!

Alien_Rage

RePack

fifa19

RePack

Assassins Creed: Odyssey

RePack

NEED FOR SPEED™ PAYBACK

4 сезон

9 сезон

Бесстыжие 9 сезон

Все сериалы

все сериалы на PB.wtf

RePack

FAR CRY 5
  

Озарк / Ozark / Сезон: 2 / Серии 1-10 из 10 (Эндрю Бернштейн / Andrew Bernstein, Эллен Кёрас / Ellen Kuras, Дэниэл Сакхайм / Daniel Sackheim) [2018, США, триллер, драма, криминал, WEBRip] MVO [BaibaKo] pb.wtf

Озарк через торрент pb.wtf

Размер: 6.96 GB | Добавлен: 2 года 3 мес. назад | Торрент скачан:92 раза
Скачать  

01-09-2018 01:51 Озарк Скачать торрент  


Озарк / Ozark



  • Год выпуска: 2018
  • Страна: США
  • Жанр: триллер, драма, криминал
  • Продолжительность: ~ 00:55:00 (Серия)
  • Перевод: Профессиональный многоголосый [BaibaKo]
  • Режиссер: Эндрю Бернштейн / Andrew Bernstein, Эллен Кёрас / Ellen Kuras, Дэниэл Сакхайм / Daniel Sackheim
  • В ролях:

    Джейсон Бейтман (Marty Byrde), Джейсон Батлер Харнер (Roy Petty), Энтони Коллинс (police officer Qieroz), София Хьюблиц (Charlotte), Лора Линни (Wendy Byrde), Скайлар Гертнер (Jonah Byrde), Кристофер Джеймс Бэйкер (Boyd Langmore), Carson Holmes (Three), Марк Менчака (Russ Langmore), МакКинли Белчер III (Agent Trevor Evans), Лиза Эмери (Darlene Snell), Кевин Л. Джонсон (Sam Dermody)


  • Финансист Марти Бердс подрабатывает на второй по величине наркокартель в Мексике и когда ситуация выходит из-под контроля, он вынужден вместе с семьей переехать из Чикаго к озеру Озарк и попытаться "отмыть" миллионы нелегальных долларов, чтобы вернуть долг безжалостному наркобарону.
  • Рейтинг:

    rating
  • Качество: WEBRip
  • Формат: :AVI
  • Видео кодек: XviD
  • Аудио кодек: MP3
  • Видео: 1481 Кбит/сек, 720*400 (16:9), в 23,976 (24000/1001) кадра/сек, MPEG-4 Visual (XviD)
  • Аудио №1: русский 192 Кбит/сек, 48,0 КГц, 2 канала, MPEG Audio (MP3) |[BaibaKo]|
  • Релиз от: GEKADOL

    Внимание! Раздача ведётся путём добавления новых серий; при каждом добавлении создаётся новый торрент. Чтобы начать докачку новой серии, пользователям необходимо сделать следующее:
    (1) остановить скачивание,
    (2) удалить старый торрент у себя из клиента (старые серии удалять не надо),
    (3) скачать новый торрент и запустить его у себя в клиенте вместо старого, при этом указать клиенту путь в старую папку куда и должно происходить скачивание новых серий.
    Ваш клиент при этом должен произвести хеширование (проверку) старой папки (если не производит сам - помогите ему сделать это), и будет докачивать только те серии которых у вас ещё нет. Старые серии при этом не удаляются, а продолжают раздаваться!
    Eсли вы уже удалили старые серии, то предотвратить повторную закачку старых серий можно, отжав галочку в соответствующих местах при запуске нового торрента. По возможности, желательно не удалять старые серии как можно дольше чтобы релизёр не столько продолжал раздавать старые серии, а смог сконцентрироваться на новых.
    Общее
    Полное имя : F:\Озарк (Ozark) S.2\Ozark.s02e01.WEBRip.XviD..Rus.BaibaKo.avi
    Формат : AVI
    Формат/Информация : Audio Video Interleave
    Размер файла : 694 Мбайт
    Продолжительность : 57 м. 33 с.
    Общий поток : 1686 Кбит/сек
    Программа кодирования : Lavf57.71.100

    Видео
    Идентификатор : 0
    Формат : MPEG-4 Visual
    Профиль формата : Advanced Simple@L5
    Настройки формата : BVOP1
    Параметр BVOP формата : 1
    Параметр QPel формата : Нет
    Параметр GMC формата : Без точки перехода
    Параметр матрицы формата : Default (H.263)
    Идентификатор кодека : XVID
    Идентификатор кодека/Подсказка : XviD
    Продолжительность : 57 м. 33 с.
    Битрейт : 1481 Кбит/сек
    Ширина : 720 пикселей
    Высота : 400 пикселей
    Соотношение сторон : 16:9
    Частота кадров : 23,976 (24000/1001) кадра/сек
    Цветовое пространство : YUV
    Субдискретизация насыщенности : 4:2:0
    Битовая глубина : 8 бит
    Тип развёртки : Прогрессивная
    Метод сжатия : С потерями
    Бит/(Пиксели*Кадры) : 0.214
    Размер потока : 610 Мбайт (88%)
    Библиотека кодирования : XviD 67

    Аудио
    Идентификатор : 1
    Формат : MPEG Audio
    Версия формата : Version 1
    Профиль формата : Layer 3
    Настройки формата : Joint stereo
    Идентификатор кодека : 55
    Идентификатор кодека/Подсказка : MP3
    Продолжительность : 57 м. 33 с.
    Вид битрейта : Постоянный
    Битрейт : 192 Кбит/сек
    Каналы : 2 канала
    Частота : 48,0 КГц
    Метод сжатия : С потерями
    Размер потока : 79,0 Мбайт (11%)
    Выравнивание : Соединение по промежуткам
    Продолжительность промежутка : 24 мс. (0,58 видеокадр)
    Библиотека кодирования : LAME3.100ЄЄЄЄЄЄЄЄЄЄЄ




    Внимание! В сериале присутствуют сцены сексуального характера и ненормативная лексика!

    Скриншоты:
    скриншот   скриншот   скриншот   скриншот   скриншот   скриншот   скриншот  
    скриншот  

    Раздача ведётся путём добавления новых серий. Добавлена 4-10 серия (03.09.2018).Просьба перекачать торрент файл.

    pb.wtf



  • Скачать Озарк через торрент http://pic1.kartinco.top/images/11/inr7v.jpg Скачать фильм Озарк через торрент бесплантно в хорошем качестве qw.png Финансист Марти Бердс подрабатывает на второй по величине наркокартель в Мексике и когда ситуация выходит из-под контроля, он ... 10 10 4
    Торрент: Зарегистрирован [2018-09-03 12:41] · скачан: 92 раз
    Статус: √ проверено
    Размер: 6.96 GB
    Как cкачать? Как скачать Озарк через торрент | qTorrent

    % Раздел Тема Автор DL S | L
    Зарубежные сериалы [ 8.6 GB ] Озарк / Ozark / Сезон: 2 / Серии: 1-10 из 10 [2018 WEBRip] DUB [Пифагор / Netflix] bober100 Скачать
    1 | 0
    Зарубежные сериалы [ 43.36 GB ] Озарк / Ozark / Сезон: 2 / Серии: 1-10 из 10 [2018 WEBRip 1080p] DUB [Пифагор / Netflix] bober100 Скачать
    2 | 0
    Зарубежные сериалы [ 21.91 GB ] Озарк / Ozark / Сезон: 2 / Серии: 1-10 из 10 [2018 WEBRip 720p] [DVO] killermax2013 Скачать
    1 | 0
    Зарубежные сериалы [ 122.99 GB ] Озарк / Ozark / Сезон: 2 / Серии: 1-10 из 10 [2018 UHD WEBRip 2160p] 3xMVO [LostFilm Baibako NewStudio] sheker187 Скачать
    1 | 0
    Зарубежные сериалы [ 7.41 GB ] Озарк / Ozark / Сезон: 2 / Серии: 1-10 из 10 [2018 WEBRip] [MVO] killermax2013 Скачать
    1 | 0
    Зарубежные сериалы [ 30.45 GB ] Озарк / Ozark / Сезон: 2 / Серии: 1-10 из 10 [2018 WEBRip 1080p] MVO [Baibako] bober100 Скачать
    1 | 0
    Зарубежные сериалы [ 7.41 GB ] Озарк / Ozark / Сезон: 2 / Серии: 1-10 из 10 [2018 WEBRip] MVO [LostFilm] bober100 Скачать
    1 | 0

    28-11-2019 20:33  

    Отключить всю рекламу на сайте

      Дорогой пользователь! Огромная просьба, поблагодарите релизера, оцените раздачу и оставьте свои комментарий, если Вы скачали Озарк через торрент бесплатно! Внесите свою лепту в развитие PiratBit!
      Комментировать посты могут только пользователи прошедшие не сложную регистрацию
      Показать сообщения:    

      Озарк через торрент
      Скачать бесплатно Озарк
      Озарк скачать торрент
      Озарк смотреть онлайн
      Cкачать фильм Озарк бесплатно
      Озарк скачать торрент в хорошем качестве
      Озарк смотреть онлайн бесплатно в хорошем качестве


      Вы не можете начинать темы
      Вы не можете отвечать на сообщения
      Вы не можете редактировать свои сообщения
      Вы не можете удалять свои сообщения
      Вы не можете голосовать в опросах
      Вы не можете прикреплять файлы к сообщениям
      Вы можете скачивать файлы