новый адрес
Ссылка на приватное зеркало всего за 1$. Внимание количество ограничено!!!

iTunes

1+1

iTunes

мы

iTunes

1

iTunes

Чернобыль

iTunes

Ральф против интернета

Лицензия

ПШазам

Лицензия

Оно 2

Лицензия

30
pack

Вам бонус

ВАЖНО

!!Акция!!

Alien_RageХит недели

RePack

Resident Evil 21

ИГРА 18+

pack

RePack

jed

!!Акция!!

Alien_Rage

RePack

fifa19

RePack

Assassins Creed: Odyssey

RePack

NEED FOR SPEED™ PAYBACK

3 сезон

9 сезон

Бесстыжие 9 сезон

Все сериалы

все сериалы на PB.wtf

RePack

FAR CRY 5
Ребята, катастрофически не хватает 1900р. для оплаты серверов за Октябрь (всвязи с блокировками трафик упал в 3 раза), 1-2р., выручайте.
  

Незнакомцы: Жестокие игры / The Strangers: Prey at Night (Йоханнес Робертс) [2018, ужасы, BDRip-AVC] DUB [Лицензия BD RUS] pb.wtf

Незнакомцы: Жестокие игры через торрент pb.wtf

Размер: 746 MB | Добавлен: 1 год 3 мес. назад | Торрент скачан:67 раз
Скачать  

01-09-2018 05:42 Незнакомцы: Жестокие игры Скачать торрент  

Незнакомцы: Жестокие игры / The Strangers: Prey at Night
Год выпуска: 2018
Страна: Канада
Жанр: ужасы
Продолжительность: 01:25:37
Перевод: Дублированный | Лицензия BD RUS
Субтитры: Русские, английские

Режиссер: Йоханнес Робертс

rating

В ролях:

Кристина Хендрикс, Бэйли Мэдисон, Эмма Белломи, Мартин Хендерсон, Льюис Пуллман, Дэмиэн Маффей, Лиа Энзлин, Леа Робертс, Престон Садлеир,

Описание:

Американская семья отправляется в небольшое путешествие - навестить родственников, которые живут в кемпинге. Но автомобильный лагерь оказывается пуст. Под покровом ночи появляются трое психопатов в масках, цель которых не грабить или убивать, а выяснить, какой у каждого из членов семьи личный предел жажды жизни...​

Качество: BDRip-AVC
Формат: MKV

Видео: MPEG-4 AVC, 720x304, ~ 1025 Кбит/с
Аудио: AC3, 2 ch, 192 Кбит/с
скриншот  скриншот  скриншот  скриншот  скриншот  

Общее
Уникальный идентификатор : 58165516153760671883311286101773957516 (0x2BC2455B9C7AC7612704D973F30CB98C)
Полное имя : F:\OlLanDGroup\The.Strangers.Prey.at.Night.2018.BDRip(AVC).OlLanDGroup.mkv
Формат : Matroska
Версия формата : Version 4 / Version 2
Размер файла : 746 Мбайт
Продолжительность : 1 ч. 25 м.
Общий поток : 1218 Кбит/сек
Название фильма : The.Strangers.Prey.at.Night.2018 #TorpedoUK#
Дата кодирования : UTC 2018-09-01 02:50:22
Программа кодирования : mkvmerge v25.0.0 ('Prog Noir') 64-bit
Библиотека кодирования : libebml v1.3.6 + libmatroska v1.4.9

Видео
Идентификатор : 1
Формат : AVC
Формат/Информация : Advanced Video Codec
Профиль формата : High@L4.1
Параметр CABAC формата : Да
Параметр ReFrames формата : 10 кадров
Идентификатор кодека : V_MPEG4/ISO/AVC
Продолжительность : 1 ч. 25 м.
Битрейт : 1025 Кбит/сек
Ширина : 720 пикселей
Высота : 304 пикселя
Соотношение сторон : 2,35:1
Режим частоты кадров : Постоянный
Частота кадров : 23,976 (24000/1001) кадра/сек
Цветовое пространство : YUV
Субдискретизация насыщенности : 4:2:0
Битовая глубина : 8 бит
Тип развёртки : Прогрессивная
Бит/(Пиксели*Кадры) : 0.195
Размер потока : 627 Мбайт (84%)
Библиотека кодирования : x264 core 146 r2538 121396c
Настройки программы : cabac=1 / ref=10 / deblock=1:-3:-3 / analyse=0x3:0x113 / me=umh / subme=11 / psy=1 / psy_rd=0.98:0.04 / mixed_ref=1 / me_range=48 / chroma_me=1 / trellis=2 / 8x8dct=1 / cqm=0 / deadzone=21,11 / fast_pskip=1 / chroma_qp_offset=-3 / threads=6 / lookahead_threads=1 / sliced_threads=0 / nr=0 / decimate=1 / interlaced=0 / bluray_compat=0 / constrained_intra=0 / bframes=10 / b_pyramid=2 / b_adapt=2 / b_bias=0 / direct=3 / weightb=1 / open_gop=0 / weightp=2 / keyint=240 / keyint_min=23 / scenecut=40 / intra_refresh=0 / rc_lookahead=40 / rc=2pass / mbtree=1 / bitrate=1025 / ratetol=1.0 / qcomp=0.60 / qpmin=0 / qpmax=69 / qpstep=4 / cplxblur=20.0 / qblur=0.5 / vbv_maxrate=50000 / vbv_bufsize=62500 / nal_hrd=none / filler=0 / ip_ratio=1.40 / aq=1:1.00
Default : Да
Forced : Нет

Аудио
Идентификатор : 2
Формат : AC-3
Формат/Информация : Audio Coding 3
Расширение режима : CM (complete main)
Параметр Endianness формата : Big
Идентификатор кодека : A_AC3
Продолжительность : 1 ч. 25 м.
Вид битрейта : Постоянный
Битрейт : 192 Кбит/сек
Каналы : 2 канала
Расположение каналов : Front: L R
Частота : 48,0 КГц
Частота кадров : 31,250 кадров/сек (1536 spf)
Битовая глубина : 16 бит
Метод сжатия : С потерями
Размер потока : 118 Мбайт (16%)
Заголовок : License
Язык : Russian
Default : Да
Forced : Нет

Текст #1
Идентификатор : 3
Формат : UTF-8
Идентификатор кодека : S_TEXT/UTF8
Идентификатор кодека/Информация : UTF-8 Plain Text
Продолжительность : 1 ч. 17 м.
Битрейт : 35 бит/сек
Count of elements : 584
Размер потока : 20,4 Кбайт (0%)
Заголовок : Full
Язык : Russian
Default : Нет
Forced : Нет

Текст #2
Идентификатор : 4
Формат : UTF-8
Идентификатор кодека : S_TEXT/UTF8
Идентификатор кодека/Информация : UTF-8 Plain Text
Продолжительность : 1 ч. 13 м.
Битрейт : 26 бит/сек
Count of elements : 618
Размер потока : 14,3 Кбайт (0%)
Заголовок : Full
Язык : English
Default : Нет
Forced : Нет

Текст #3
Идентификатор : 5
Формат : UTF-8
Идентификатор кодека : S_TEXT/UTF8
Идентификатор кодека/Информация : UTF-8 Plain Text
Продолжительность : 1 ч. 16 м.
Битрейт : 32 бит/сек
Count of elements : 674
Размер потока : 18,1 Кбайт (0%)
Заголовок : SDH
Язык : English
Default : Нет
Forced : Нет

Меню
00:00:00.000 : en:00:00:00.000
00:04:59.883 : en:00:04:59.883
00:08:49.154 : en:00:08:49.154
00:12:58.111 : en:00:12:58.111
00:17:23.918 : en:00:17:23.918
00:21:53.771 : en:00:21:53.771
00:24:53.909 : en:00:24:53.909
00:30:15.105 : en:00:30:15.105
00:34:45.208 : en:00:34:45.208
00:40:01.899 : en:00:40:01.899
00:44:48.728 : en:00:44:48.728
00:49:48.444 : en:00:49:48.444
00:53:12.606 : en:00:53:12.606
00:56:55.996 : en:00:56:55.996
00:58:20.705 : en:00:58:20.705
01:00:37.884 : en:01:00:37.884
01:05:21.709 : en:01:05:21.709
01:09:17.528 : en:01:09:17.528
01:14:59.036 : en:01:14:59.036
01:18:07.349 : en:01:18:07.349

pb.wtf



Скачать Незнакомцы: Жестокие игры через торрент http://i100.fastpic.ru/big/2018/0901/87/415f220ae8acaaaf216f63def58c6787.jpg Скачать фильм Незнакомцы: Жестокие игры через торрент бесплантно в хорошем качестве Описание: Американская семья отправляется в небольшое путешествие - навестить родственников, которые живут в кемпинге. Но автомобильный ... 10 10 5
Торрент: Зарегистрирован [2018-09-01 05:42] · скачан: 67 раз
Статус: √ проверено
Размер: 746 MB
Как cкачать? Как скачать Незнакомцы: Жестокие игры через торрент | qTorrent

% Раздел Тема Автор DL S | L
Фильмы 2018 [DVDrip, WEB-DLRip, HDrip] (DUB, MVO) [ 1.45 GB ] Незнакомцы: Жестокие игры / The Strangers: Prey at Night [2018 BDRip] DUB [ BD RUS] bober100 Скачать
1 | 0
Фильмы 2018 [DVDrip, WEB-DLRip, HDrip] (DUB, MVO) [ 1.56 GB ] Незнакомцы: Жестокие игры / The Strangers: Prey at Night [2018 BDRip-AVC] - ExKinoRay Enigma2010 Скачать
1 | 0
Фильмы [HD 720p, 1080p] (Хороший звук DUB, MVO) [ 5.26 GB ] Незнакомцы: Жестокие игры / The Strangers: Prey at Night [2018 BDRip 720p] DUB [] bober100 Скачать
1 | 0
Фильмы (Blu-ray, BD-Remux, HDDVD) [ 25.49 GB ] Незнакомцы: Жестокие игры / The Strangers: Prey at Night [2018 BD Remux 1080p] [US Transfer] DUB [] bober100 Скачать
1 | 0
Фильмы (Blu-ray, BD-Remux, HDDVD) [ 18.48 GB ] Незнакомцы: Жестокие игры / The Strangers: Prey at Night [2018 Blu-Ray 1080p] [RUS Transfer] DUB [] bober100 Скачать
1 | 0
Фильмы [HD 720p, 1080p] (Хороший звук DUB, MVO) [ 9.53 GB ] Незнакомцы: Жестокие игры / The Strangers: Prey at Night [2018 BDRip 1080p] DUB [] bober100 Скачать
1 | 0
Фильмы 2018 [DVDrip, WEB-DLRip, HDrip] (DUB, MVO) [ 1.46 GB ] Незнакомцы: Жестокие игры / The Strangers: Prey at Night [2018 BDRip] - [] Twi7ter Скачать
1 | 0
Отключить всю рекламу на сайте
    Дорогой пользователь! Огромная просьба, поблагодарите релизера, оцените раздачу и оставьте свои комментарий, если Вы скачали Незнакомцы: Жестокие игры через торрент бесплатно! Внесите свою лепту в развитие PiratBit!
    Комментировать посты могут только пользователи прошедшие не сложную регистрацию
    Показать сообщения:    

    Незнакомцы: Жестокие игры через торрент
    Скачать бесплатно Незнакомцы: Жестокие игры
    Незнакомцы: Жестокие игры скачать торрент
    Незнакомцы: Жестокие игры смотреть онлайн
    Cкачать фильм Незнакомцы: Жестокие игры бесплатно
    Незнакомцы: Жестокие игры скачать торрент в хорошем качестве
    Незнакомцы: Жестокие игры смотреть онлайн бесплатно в хорошем качестве


    Вы не можете начинать темы
    Вы не можете отвечать на сообщения
    Вы не можете редактировать свои сообщения
    Вы не можете удалять свои сообщения
    Вы не можете голосовать в опросах
    Вы не можете прикреплять файлы к сообщениям
    Вы можете скачивать файлы