Ссылка на приватное зеркало всего за 1$. Внимание количество ограничено!!!

OK

1+1

iTunes

мы

OK

1

WEB-DLRip

Джокер

Пифагор

Ведьмак / The Witcher сериал

iTunes

ПШазам

ОК

Оно 2

iTunes

30
pack

Вам бонус

ВАЖНО

!!Акция!!

Alien_RageХит недели

RePack

Resident Evil 21

ИГРА 18+

pack

RePack

jed

RePack

fifa19

RePack

Assassins Creed: Odyssey

RePack

NEED FOR SPEED™ PAYBACK

4 сезон

9 сезон

Бесстыжие 9 сезон

Все сериалы

все сериалы на PB.wtf

RePack

FAR CRY 5
  

Гамлет / Hamlet (Роберт Ике, Родри Хув, Илинка Радулян) [2018, Драма, HDTVRip 720p] MVO ["Синема УС"] pb.wtf

Гамлет через торрент pb.wtf

Размер: 6.57 GB | Добавлен: 1 год 4 мес. назад | Торрент скачан:21 раз
Скачать  

01-09-2018 06:26 Гамлет Скачать торрент  

Гамлет / HamletГод выпуска: 2018
Страна: Великобритания
Жанр: Драма
Продолжительность: 03:14:59
Перевод: Любительский (многоголосый) | "Синема УС"
Субтитры: отсутствуют

Режиссер: Роберт Ике, Родри Хув, Илинка Радулян

rating

В ролях:

Эндрю Скотт, Джульет Стивенсон, Джессика Браун-Финдли, Люк Томпсон, Энгус Райт, Маанув Тиара, Дэвид Ринтул, Питер Уайт, Калум Финлей, Джошуа Хигготт

Описание:

Современная постановка знаменитой трагедии Уильяма Шекспира в театре Алмейда с Эндрю Скоттом в главной роли. Для королевства наступили неспокойные времена, а принц Датский попал в не самую простую ситуацию. Короля убивает родной брат, заняв его место на престоле и в постели жены правителя — матери Гамлета. В душе юноши развивается буря эмоций и переживаний, что приводит к череде ужасных смертей...

Качество: HDTVRip 720p
Формат: MKV

Видео: h.264,4 441 kb/s, 1280x720
Аудио#1: Русский, (AC3, 2 ch, 384 Кбит/с)
скриншот  скриншот  скриншот  

Общее
Уникальный идентификатор : 219414630828545143221349709601007920436 (0xA511B884B4CC66D9B3450BDDFC52E534)
Полное имя : D:\Hamlet.2017.P.HDTV.72Op_KOSHARA.mkv
Формат : Matroska
Версия формата : Version 2
Размер файла : 6,57 Гбайт
Продолжительность : 3 ч. 14 м.
Режим общего битрейта : Переменный
Общий поток : 4826 Кбит/сек
Дата кодирования : UTC 2018-08-28 19:39:10
Программа кодирования : mkvmerge v8.3.0 ('Over the Horizon') 64bit
Библиотека кодирования : libebml v1.3.1 + libmatroska v1.4.2

Видео
Идентификатор : 1
Формат : AVC
Формат/Информация : Advanced Video Codec
Профиль формата : High@L4.1
Параметр CABAC формата : Да
Параметр RefFrames формата : 4 кадра
Идентификатор кодека : V_MPEG4/ISO/AVC
Продолжительность : 3 ч. 14 м.
Вид битрейта : Переменный
Битрейт : 4441 Кбит/сек
Максимальный битрейт : 5000 Кбит/сек
Ширина : 1280 пикселей
Высота : 720 пикселей
Соотношение сторон : 16:9
Режим частоты кадров : Постоянный
Частота кадров : 23,976 (24000/1001) кадра/сек
Стандарт вещания : Component
Цветовое пространство : YUV
Субдискретизация насыщенности : 4:2:0
Битовая глубина : 8 бит
Тип развёртки : Прогрессивная
Бит/(Пиксели*Кадры) : 0.197
Размер потока : 5,92 Гбайт (90%)
Default : Да
Forced : Нет
Цветовой диапазон : Limited
Основные цвета : BT.709
Характеристики трансфера : BT.709
Коэффициенты матрицы : BT.709

Аудио
Идентификатор : 2
Формат : AC-3
Формат/Информация : Audio Coding 3
Расширение режима : CM (complete main)
Параметр Endianness формата : Big
Идентификатор кодека : A_AC3
Продолжительность : 3 ч. 14 м.
Вид битрейта : Постоянный
Битрейт : 384 Кбит/сек
Каналы : 2 канала
Расположение каналов : Front: L R
Частота : 48,0 КГц
Частота кадров : 31,250 кадров/сек (1536 spf)
Метод сжатия : С потерями
Размер потока : 536 Мбайт (8%)
Default : Да
Forced : Нет

pb.wtf



Скачать Гамлет через торрент http://img11.lostpic.net/2018/09/01/4f94d185e76fb9e45ff6811b6541e219.jpg Скачать фильм Гамлет через торрент бесплантно в хорошем качестве Описание: Современная постановка знаменитой трагедии Уильяма Шекспира в театре Алмейда с Эндрю Скоттом в главной роли. Для королевства ... 10 10 3
Торрент: Зарегистрирован [2018-09-01 06:26] · скачан: 21 раз
Статус: T временная
Размер: 6.57 GB
Как cкачать? Как скачать Гамлет через торрент | qTorrent

% Раздел Тема Автор DL S | L
T Фильмы (мультфильмы) cо спонсором показа (Новинки AVI/MKV) [ 2.74 GB ] Гамлет / Hamlet [2018 HDTVRip] MVO ["Синема УС"] bober100 Скачать
1 | 0
T Фильмы (мультфильмы) cо спонсором показа (Новинки AVI/MKV) [ 2.05 GB ] Гамлет / Hamlet [2018 HDTVRip] MVO ["Синема УС"] bober100 Скачать
1 | 0
Классические порно фильмы [ 691 MB ] Секс Гамлет / X Hamlet [1995 All Sex History DVDRip] Kenny McCormick Скачать
1 | 0
Фильмы 2006-2008 [ 700 MB ] Гамлет 2 / Hamlet 2 [2008 DVDRip] кэп Скачать
1 | 0

28-11-2019 20:33  

Отключить всю рекламу на сайте

    Дорогой пользователь! Огромная просьба, поблагодарите релизера, оцените раздачу и оставьте свои комментарий, если Вы скачали Гамлет через торрент бесплатно! Внесите свою лепту в развитие PiratBit!
    Комментировать посты могут только пользователи прошедшие не сложную регистрацию
    Показать сообщения:    

    Гамлет через торрент
    Скачать бесплатно Гамлет
    Гамлет скачать торрент
    Гамлет смотреть онлайн
    Cкачать фильм Гамлет бесплатно
    Гамлет скачать торрент в хорошем качестве
    Гамлет смотреть онлайн бесплатно в хорошем качестве


    Вы не можете начинать темы
    Вы не можете отвечать на сообщения
    Вы не можете редактировать свои сообщения
    Вы не можете удалять свои сообщения
    Вы не можете голосовать в опросах
    Вы не можете прикреплять файлы к сообщениям
    Вы можете скачивать файлы