Ссылка на приватное зеркало всего за 1$. Внимание количество ограничено!!!

OK

1+1

iTunes

мы

OK

1

WEB-DLRip

Джокер

Пифагор

Ведьмак / The Witcher сериал

Лицензия

ПШазам

ОК

Оно 2

iTunes

30
pack

Вам бонус

ВАЖНО

!!Акция!!

Alien_RageХит недели

RePack

Resident Evil 21

ИГРА 18+

pack

RePack

jed

RePack

fifa19

RePack

Assassins Creed: Odyssey

RePack

NEED FOR SPEED™ PAYBACK

4 сезон

9 сезон

Бесстыжие 9 сезон

Все сериалы

все сериалы на PB.wtf

RePack

FAR CRY 5
  

Реальное доказательство: Тайна лежит на поверхности / Concrete Evidence: A Fixer Upper Mystery (Марк Жан) [2017, Криминал, детектив, HDTVRip 720p] MVO ["Синема УС"] pb.wtf

Реальное доказательство: Тайна лежит на поверхности через торрент pb.wtf

Размер: 2.93 GB | Добавлен: 1 год 4 мес. назад | Торрент скачан:73 раза
Скачать  

01-09-2018 09:26 Реальное доказательство: Тайна лежит на поверхности Скачать торрент  

Реальное доказательство: Тайна лежит на поверхности / Concrete Evidence: A Fixer Upper Mystery
Год выпуска: 2017
Страна: США, Канада
Жанр: Криминал, детектив
Продолжительность: 01:26:09
Перевод: Любительский (многоголосый) | "Синема УС"
Субтитры: отсутствуют

Режиссер: Марк Жан

rating

В ролях:

Джуэл Кильчер, Колин Фергюсон, Эрин Карплак, Рон Лиа, Джейсон Сермак, Ю Шон Роджерсон, Уильям МакДональд, Майкл Карл Ричардс, Дженн МакЛин-Энгус, Бен Коттон

Описание:

Во время восстановления старого дома Шеннон обнаруживает кое-что шокирующее , после чего начинает расследование, которое всё меняет.

Качество: HDTVRip 720p
Формат: MKV

Видео: h.264, 4 488 kb/s, 1280x720
Аудио#1: Русский, (AC3, 2 ch, 384 Кбит/с)
скриншот  скриншот  скриншот  

Общее
Уникальный идентификатор : 216334913969130434568651034214755835039 (0xA2C096C10897DB3FA9D7DC6A3E459C9F)
Полное имя : D:\Сoncrete.evidence.a.fixer.upper.mystery.2017.P.HDTV.72Op_KOSHARA.mkv
Формат : Matroska
Версия формата : Version 2
Размер файла : 2,93 Гбайт
Продолжительность : 1 ч. 26 м.
Режим общего битрейта : Переменный
Общий поток : 4874 Кбит/сек
Дата кодирования : UTC 2018-08-28 19:05:05
Программа кодирования : mkvmerge v8.3.0 ('Over the Horizon') 64bit
Библиотека кодирования : libebml v1.3.1 + libmatroska v1.4.2

Видео
Идентификатор : 1
Формат : AVC
Формат/Информация : Advanced Video Codec
Профиль формата : High@L4.1
Параметр CABAC формата : Да
Параметр RefFrames формата : 4 кадра
Идентификатор кодека : V_MPEG4/ISO/AVC
Продолжительность : 1 ч. 26 м.
Вид битрейта : Переменный
Битрейт : 4488 Кбит/сек
Максимальный битрейт : 5000 Кбит/сек
Ширина : 1280 пикселей
Высота : 720 пикселей
Соотношение сторон : 16:9
Режим частоты кадров : Постоянный
Частота кадров : 23,976 (24000/1001) кадра/сек
Стандарт вещания : Component
Цветовое пространство : YUV
Субдискретизация насыщенности : 4:2:0
Битовая глубина : 8 бит
Тип развёртки : Прогрессивная
Бит/(Пиксели*Кадры) : 0.199
Размер потока : 2,64 Гбайт (90%)
Default : Да
Forced : Нет
Цветовой диапазон : Limited
Основные цвета : BT.709
Характеристики трансфера : BT.709
Коэффициенты матрицы : BT.709

Аудио
Идентификатор : 2
Формат : AC-3
Формат/Информация : Audio Coding 3
Расширение режима : CM (complete main)
Параметр Endianness формата : Big
Идентификатор кодека : A_AC3
Продолжительность : 1 ч. 26 м.
Вид битрейта : Постоянный
Битрейт : 384 Кбит/сек
Каналы : 2 канала
Расположение каналов : Front: L R
Частота : 48,0 КГц
Частота кадров : 31,250 кадров/сек (1536 spf)
Метод сжатия : С потерями
Размер потока : 237 Мбайт (8%)
Default : Да
Forced : Нет

pb.wtf



Скачать Реальное доказательство: Тайна лежит на поверхности через торрент http://img11.lostpic.net/2018/09/01/e588ea9530a4621d7deede7a32f1f612.jpg Скачать фильм Реальное доказательство: Тайна лежит на поверхности через торрент бесплантно в хорошем качестве Описание: Во время восстановления старого дома Шеннон обнаруживает кое-что шокирующее , после чего начинает расследование, которое всё ... 7 10 3
Торрент: Зарегистрирован [2018-09-01 09:26] · скачан: 73 раз
Статус: T временная
Размер: 2.93 GB
Как cкачать? Как скачать Реальное доказательство: Тайна лежит на поверхности через торрент | qTorrent

% Раздел Тема Автор DL S | L
T Фильмы (мультфильмы) cо спонсором показа (Новинки AVI/MKV) [ 1.37 GB ] Реальное доказательство: Тайна лежит на поверхности / Concrete Evidence: A Fixer Upper Mystery [2017 HDTVRip] MVO ["Синема УС"] bober100 Скачать
1 | 0

28-11-2019 20:33  

Отключить всю рекламу на сайте

    Дорогой пользователь! Огромная просьба, поблагодарите релизера, оцените раздачу и оставьте свои комментарий, если Вы скачали Реальное доказательство: Тайна лежит на поверхности через торрент бесплатно! Внесите свою лепту в развитие PiratBit!
    Комментировать посты могут только пользователи прошедшие не сложную регистрацию
    Показать сообщения:    

    Реальное доказательство: Тайна лежит на поверхности через торрент
    Скачать бесплатно Реальное доказательство: Тайна лежит на поверхности
    Реальное доказательство: Тайна лежит на поверхности скачать торрент
    Реальное доказательство: Тайна лежит на поверхности смотреть онлайн
    Cкачать фильм Реальное доказательство: Тайна лежит на поверхности бесплатно
    Реальное доказательство: Тайна лежит на поверхности скачать торрент в хорошем качестве
    Реальное доказательство: Тайна лежит на поверхности смотреть онлайн бесплатно в хорошем качестве


    Вы не можете начинать темы
    Вы не можете отвечать на сообщения
    Вы не можете редактировать свои сообщения
    Вы не можете удалять свои сообщения
    Вы не можете голосовать в опросах
    Вы не можете прикреплять файлы к сообщениям
    Вы можете скачивать файлы