Ссылка на приватное зеркало нашего сайта всего за 1$. Внимание количество ограничено!!!

2 сезон

iTunes

1 сезон

1

2 сезон

2 сезон

iTunes

1 сезон

RePack

30

Ultimate

ВАЖНО

ИГРА 18+

pack

RePack

MK11
pack

Забери бонус

RePack

jed

!!Акция!!

Alien_Rage

RePack

fifa19

RePack

Assassins Creed: Odyssey

RePack

NEED FOR SPEED™ PAYBACK

4 сезон

9 сезон

Бесстыжие 9 сезон

Все сериалы

все сериалы на PB.wtf

RePack

FAR CRY 5
  

Озарк / Ozark / Сезон: 2 / Серии: 1-10 из 10 (Эндрю Бернштейн, Эллен Кёрас, Дэниэл Сакхайм) [2018, Триллер, драма, криминал, WEBRip] MVO [GostFilm] pb.wtf

Озарк через торрент pb.wtf

Размер: 5.77 GB | Добавлен: 2 года 2 мес. назад | Торрент скачан:12 раз
Скачать  

01-09-2018 10:17 Озарк Скачать торрент  

Озарк / Ozark
Год выпуска: 2018
Страна: США
Жанр: Триллер, драма, криминал
Продолжительность: ~ 00:55:00
Перевод: Любительский (многоголосый) |
Субтитры: отсутствуют

Режиссер: Эндрю Бернштейн, Эллен Кёрас, Дэниэл Сакхайм

rating

В ролях:

Джейсон Бейтмен, Лора Линни, София Хьюблиц, Джейсон Батлер Харнер, Джулия Гарнер, Энтони Коллинс, Скайлар Гертнер, Джордана Спиро, Кристофер Джеймс Бэйкер, Марк Менчака, Лиза Эмери, Питер Муллан, Эсай Моралес, Бетани Энн Линд

Описание:

Финансовый консультант Марти Бёрд вместе с женой Вэнди и остальными членами семьи вынужден переехать из престижного предместья Чикаго в курортный городок Озарк штата Миссури. К неожиданному переезду главного героя вынудили крупные долги, и на новом месте он надеется поправить своё финансовое положение.

Качество: WEBRip
Формат: AVI

Видео: ~ 1100 Кбит/с, 720x400, 25.000 fps
Аудио: Русский (MP3, 2 ch, 320 Кбит/с)
скриншот  скриншот  скриншот  скриншот  

Общее
Полное имя : D:\Ozark.S02.400p.GostFilm\Ozark.S02E01.400p.GostFilm.avi
Формат : AVI
Формат/Информация : Audio Video Interleave
Размер файла : 556 Мбайт
Продолжительность : 1 ч. 0 м.
Общий поток : 1275 Кбит/сек
Программа кодирования : Lavf56.36.100

Видео
Идентификатор : 1
Формат : MPEG-4 Visual
Профиль формата : Simple@L1
Параметр BVOP формата : Нет
Параметр QPel формата : Нет
Параметр GMC формата : Без точки перехода
Параметр матрицы формата : Default (H.263)
Идентификатор кодека : FMP4
Продолжительность : 1 ч. 0 м.
Битрейт : 942 Кбит/сек
Ширина : 720 пикселей
Высота : 400 пикселей
Соотношение сторон : 16:9
Частота кадров : 25,000 кадров/сек
Цветовое пространство : YUV
Субдискретизация насыщенности : 4:2:0
Битовая глубина : 8 бит
Тип развёртки : Прогрессивная
Метод сжатия : С потерями
Бит/(Пиксели*Кадры) : 0.131
Размер потока : 411 Мбайт (74%)
Библиотека кодирования : Lavc56.41.100

Аудио
Идентификатор : 0
Формат : MPEG Audio
Версия формата : Version 1
Профиль формата : Layer 3
Режим : Joint stereo
Идентификатор кодека : 55
Идентификатор кодека/Подсказка : MP3
Продолжительность : 1 ч. 0 м.
Вид битрейта : Постоянный
Битрейт : 320 Кбит/сек
Каналы : 2 канала
Частота : 48,0 КГц
Метод сжатия : С потерями
Размер потока : 140 Мбайт (25%)
Выравнивание : Соединение по промежуткам
Продолжительность промежутка : 40 мс. (1,00 видеокадр)
Библиотека кодирования : LAME3.99.5

Внимание! Раздача ведётся путём добавления новых серий; при каждом добавлении создаётся новый торрент. Чтобы начать докачку новой серии, пользователям необходимо сделать следующее:
Остановить скачивание.
Удалить старый торрент у себя из клиента (старые серии удалять не надо).
Скачать новый торрент и запустить его у себя в клиенте вместо старого, при этом указать клиенту путь в старую папку куда и должно происходить скачивание новых серий.

Ваш клиент при этом должен произвести хеширование (проверку) старой папки (если не производит сам - помогите ему сделать это), и будет докачивать только те серии которых у вас ещё нет. Старые серии при этом не удаляются, а продолжают раздаваться!
Eсли вы уже удалили старые серии, то предотвратить повторную закачку старых серий можно, отжав галочку в соответсвующих местах при запуске нового торрента. По возможности, желательно не удалять старые серии как можно дольше чтобы релизёр не столько продолжал раздавать старые серии, а смог сконцентрироваться на новых.
pb.wtf



Скачать Озарк через торрент https://b.radikal.ru/b06/1808/dc/eca39823c3bd.jpg Скачать фильм Озарк через торрент бесплантно в хорошем качестве Описание: Финансовый консультант Марти Бёрд вместе с женой Вэнди и остальными членами семьи вынужден переехать из престижного предместья ... 8.3 10 4
Торрент: Зарегистрирован [2018-09-04 07:46] · скачан: 12 раз
Статус: √ проверено
Размер: 5.77 GB
Как cкачать? Как скачать Озарк через торрент | qTorrent

% Раздел Тема Автор DL S | L
Зарубежные сериалы [ 8.6 GB ] Озарк / Ozark / Сезон: 2 / Серии: 1-10 из 10 [2018 WEBRip] DUB [Пифагор / Netflix] bober100 Скачать
2 | 0
Зарубежные сериалы [ 43.36 GB ] Озарк / Ozark / Сезон: 2 / Серии: 1-10 из 10 [2018 WEBRip 1080p] DUB [Пифагор / Netflix] bober100 Скачать
1 | 1
Зарубежные сериалы [ 21.91 GB ] Озарк / Ozark / Сезон: 2 / Серии: 1-10 из 10 [2018 WEBRip 720p] [DVO] killermax2013 Скачать
1 | 0
Зарубежные сериалы [ 122.99 GB ] Озарк / Ozark / Сезон: 2 / Серии: 1-10 из 10 [2018 UHD WEBRip 2160p] 3xMVO [LostFilm Baibako NewStudio] sheker187 Скачать
1 | 0
Зарубежные сериалы [ 7.41 GB ] Озарк / Ozark / Сезон: 2 / Серии: 1-10 из 10 [2018 WEBRip] [MVO] killermax2013 Скачать
1 | 0
Зарубежные сериалы [ 30.45 GB ] Озарк / Ozark / Сезон: 2 / Серии: 1-10 из 10 [2018 WEBRip 1080p] MVO [Baibako] bober100 Скачать
1 | 0
Зарубежные сериалы [ 7.41 GB ] Озарк / Ozark / Сезон: 2 / Серии: 1-10 из 10 [2018 WEBRip] MVO [LostFilm] bober100 Скачать
1 | 0

28-11-2019 20:33  

Отключить всю рекламу на сайте

    Дорогой пользователь! Огромная просьба, поблагодарите релизера, оцените раздачу и оставьте свои комментарий, если Вы скачали Озарк через торрент бесплатно! Внесите свою лепту в развитие PiratBit!
    Комментировать посты могут только пользователи прошедшие не сложную регистрацию
    Показать сообщения:    

    Озарк через торрент
    Скачать бесплатно Озарк
    Озарк скачать торрент
    Озарк смотреть онлайн
    Cкачать фильм Озарк бесплатно
    Озарк скачать торрент в хорошем качестве
    Озарк смотреть онлайн бесплатно в хорошем качестве


    Вы не можете начинать темы
    Вы не можете отвечать на сообщения
    Вы не можете редактировать свои сообщения
    Вы не можете удалять свои сообщения
    Вы не можете голосовать в опросах
    Вы не можете прикреплять файлы к сообщениям
    Вы можете скачивать файлы