Ссылка на приватное зеркало нашего сайта всего за 1$. Внимание количество ограничено!!!

2 сезон

iTunes

1 сезон

1

2 сезон

2 сезон

iTunes

1 сезон

RePack

30

Ultimate

ВАЖНО

ИГРА 18+

pack

RePack

MK11
pack

Забери бонус

RePack

jed

!!Акция!!

Alien_Rage

RePack

fifa19

RePack

Assassins Creed: Odyssey

RePack

NEED FOR SPEED™ PAYBACK

4 сезон

9 сезон

Бесстыжие 9 сезон

Все сериалы

все сериалы на PB.wtf

RePack

FAR CRY 5
  

King Company - Queen Of Hearts - 2018/ FLAC/ image +.cue, lossless/ Hard & Heavy pb.wtf

King Company - Queen Of Hearts - 2018 через торрент pb.wtf

Размер: 451 MB | Добавлен: 2 года 2 мес. назад | Торрент скачан:7 раз
Скачать  

01-09-2018 15:16 King Company - Queen Of Hearts - 2018 Скачать торрент  


King Company - Queen Of Hearts


Год издания: 2018
Страна: Finland
Жанр: Hard & Heavy
Продолжительность: 00:51:27
Лейбл издания: King Record Co
Страна-выпуска диска: Japan
Номер по каталогу: KICP 1929
Формат: FLAC
Битрейт аудио: Lossless
Тип рипа: image +.cue
Наличие сканов в содержимом раздачи: да


01. Queen Of Hearts (4:12)
02. One Day Of Your Life (4:14)
03. Stars (4:24)
04. Living In A Hurricane (3:58)
05. Under The Spell (4:30)
06. Never Say Goodbye (3:48)
07. Learn To Fly (4:07)
08. Berlin (4:37)
09. King For Tonight (4:06)
10. Living The Dream (4:23)
11. Arrival (5:24)
12. Never Say Goodbye (Acoustic Version) (Bonus Track) (3:44)

Код:

Exact Audio Copy V1.3 from 2. September 2016

EAC extraction logfile from 21. August 2018, 19:08

King Company / Queen Of Hearts (Japan)

Used drive  : ATAPI   iHAS122   W   Adapter: 2  ID: 0

Read mode               : Secure
Utilize accurate stream : Yes
Defeat audio cache      : Yes
Make use of C2 pointers : No

Read offset correction                      : 48
Overread into Lead-In and Lead-Out          : No
Fill up missing offset samples with silence : Yes
Delete leading and trailing silent blocks   : No
Null samples used in CRC calculations       : Yes
Used interface                              : Installed external ASPI interface

Used output format              : User Defined Encoder
Selected bitrate                : 1024 kBit/s
Quality                         : High
Add ID3 tag                     : No
Command line compressor         : C:\Program Files\FLAC\flac.exe
Additional command line options : -V -8 -T "Date=%year%" -T "Genre=%genre%" -T"COMMENT=Ripped by  Ilijan [MeTaLMaDNeSS.TeaM]" -8 -V %source%

TOC of the extracted CD

     Track |   Start  |  Length  | Start sector | End sector
    ---------------------------------------------------------
        1  |  0:00.00 |  4:12.31 |         0    |    18930
        2  |  4:12.31 |  4:13.72 |     18931    |    37977
        3  |  8:26.28 |  4:23.64 |     37978    |    57766
        4  | 12:50.17 |  3:58.09 |     57767    |    75625
        5  | 16:48.26 |  4:29.74 |     75626    |    95874
        6  | 21:18.25 |  3:48.05 |     95875    |   112979
        7  | 25:06.30 |  4:07.29 |    112980    |   131533
        8  | 29:13.59 |  4:37.12 |    131534    |   152320
        9  | 33:50.71 |  4:06.06 |    152321    |   170776
       10  | 37:57.02 |  4:22.57 |    170777    |   190483
       11  | 42:19.59 |  5:24.02 |    190484    |   214785
       12  | 47:43.61 |  3:43.38 |    214786    |   231548

Range status and errors

Selected range

     Filename D:\Vknish+Devastator+ungern666+deminbek=Swolo4 (Upload On Rutracker, DIE!!!)\King Company - Queen Of Hearts (Japan).wav

     Peak level 99.8 %
     Extraction speed 3.8 X
     Range quality 100.0 %
     Test CRC C7BAB83D
     Copy CRC C7BAB83D
     Copy OK

No errors occurred

AccurateRip summary

Track  1  not present in database
Track  2  not present in database
Track  3  not present in database
Track  4  not present in database
Track  5  not present in database
Track  6  not present in database
Track  7  not present in database
Track  8  not present in database
Track  9  not present in database
Track 10  not present in database
Track 11  not present in database
Track 12  not present in database

None of the tracks are present in the AccurateRip database

End of status report

Код:

REM GENRE "Heavy Metal/Hard Rock"
REM DATE 2018
REM DISCID 930C0F0C
REM COMMENT "ExactAudioCopy v1.3"
PERFORMER "King Company"
TITLE "Queen Of Hearts (Japan)"
FILE "King Company - Queen Of Hearts (Japan).flac" WAVE
  TRACK 01 AUDIO
    TITLE "Queen Of Hearts"
    PERFORMER "King Company"
    INDEX 01 00:00:00
  TRACK 02 AUDIO
    TITLE "One Day Of Your Life"
    PERFORMER "King Company"
    INDEX 00 04:10:68
    INDEX 01 04:12:31
  TRACK 03 AUDIO
    TITLE "Stars"
    PERFORMER "King Company"
    INDEX 00 08:24:65
    INDEX 01 08:26:28
  TRACK 04 AUDIO
    TITLE "Living In A Hurricane"
    PERFORMER "King Company"
    INDEX 00 12:48:54
    INDEX 01 12:50:17
  TRACK 05 AUDIO
    TITLE "Under The Spell"
    PERFORMER "King Company"
    INDEX 00 16:46:63
    INDEX 01 16:48:26
  TRACK 06 AUDIO
    TITLE "Never Say Goodbye"
    PERFORMER "King Company"
    INDEX 00 21:16:62
    INDEX 01 21:18:25
  TRACK 07 AUDIO
    TITLE "Learn To Fly"
    PERFORMER "King Company"
    INDEX 00 25:04:67
    INDEX 01 25:06:30
  TRACK 08 AUDIO
    TITLE "Berlin"
    PERFORMER "King Company"
    INDEX 00 29:12:21
    INDEX 01 29:13:59
  TRACK 09 AUDIO
    TITLE "King For Tonight"
    PERFORMER "King Company"
    INDEX 00 33:49:33
    INDEX 01 33:50:71
  TRACK 10 AUDIO
    TITLE "Living The Dream"
    PERFORMER "King Company"
    INDEX 00 37:55:39
    INDEX 01 37:57:02
  TRACK 11 AUDIO
    TITLE "Arrival"
    PERFORMER "King Company"
    INDEX 00 42:18:21
    INDEX 01 42:19:59
  TRACK 12 AUDIO
    TITLE "Never Say Goodbye (Acoustic Version) (Bonus Track)"
    PERFORMER "King Company"
    INDEX 00 47:39:23
    INDEX 01 47:43:61




pb.wtf



Скачать King Company - Queen Of Hearts - 2018 через торрент http://i100.fastpic.ru/big/2018/0901/96/88abba4b2d142faf61d096f2f353e796.png Скачать фильм King Company - Queen Of Hearts - 2018через торрент бесплантно в хорошем качестве Трэклист Queen Of Hearts (4:12) One Day Of Your Life (4:14) Stars (4:24) Living In A Hurricane (3:58) Under ... 10 10 2
Торрент: Зарегистрирован [2018-09-01 15:16] · скачан: 7 раз
Статус: √ проверено
Размер: 451 MB
Как cкачать? Как скачать King Company - Queen Of Hearts - 2018 через торрент | qTorrent

28-11-2019 20:33  

Отключить всю рекламу на сайте

    Дорогой пользователь! Огромная просьба, поблагодарите релизера, оцените раздачу и оставьте свои комментарий, если Вы скачали King Company - Queen Of Hearts - 2018 через торрент бесплатно! Внесите свою лепту в развитие PiratBit!
    Комментировать посты могут только пользователи прошедшие не сложную регистрацию
    Показать сообщения:    

    King Company - Queen Of Hearts - 2018 через торрент
    Скачать бесплатно King Company - Queen Of Hearts - 2018
    King Company - Queen Of Hearts - 2018 скачать торрент
    King Company - Queen Of Hearts - 2018 смотреть онлайн
    Cкачать фильм King Company - Queen Of Hearts - 2018 бесплатно
    King Company - Queen Of Hearts - 2018 скачать торрент в хорошем качестве
    King Company - Queen Of Hearts - 2018 смотреть онлайн бесплатно в хорошем качестве


    Вы не можете начинать темы
    Вы не можете отвечать на сообщения
    Вы не можете редактировать свои сообщения
    Вы не можете удалять свои сообщения
    Вы не можете голосовать в опросах
    Вы не можете прикреплять файлы к сообщениям
    Вы можете скачивать файлы