Ссылка на приватное зеркало нашего сайта всего за 1$. Внимание количество ограничено!!!

2 сезон

iTunes

1 сезон

1

2 сезон

2 сезон

iTunes

1 сезон

RePack

30

Ultimate

ВАЖНО

ИГРА 18+

pack

RePack

MK11
pack

Забери бонус

RePack

jed

!!Акция!!

Alien_Rage

RePack

fifa19

RePack

Assassins Creed: Odyssey

RePack

NEED FOR SPEED™ PAYBACK

4 сезон

9 сезон

Бесстыжие 9 сезон

Все сериалы

все сериалы на PB.wtf

RePack

FAR CRY 5
  

Джек Райан / Jack Ryan / Сезон: 1 / Серии: 1-8 из 8 (Патрисия Ригген, Дэниэл Сакхайм, Карлтон Кьюз) [2018 , Боевик, триллер, драма, WEBRip] MVO [ColdFilm] pb.wtf

Джек Райан через торрент pb.wtf

Размер: 4.4 GB | Добавлен: 2 года 3 мес. назад | Торрент скачан:39 раз
Скачать  

01-09-2018 15:45 Джек Райан Скачать торрент  

Джек Райан / Jack Ryan
Год выпуска: 2018
Страна: США
Жанр: Боевик, триллер, драма
Продолжительность: ~ 00:55:00
Перевод: Любительский (многоголосый) |
Субтитры: отсутствуют

Режиссер: Патрисия Ригген, Дэниэл Сакхайм, Карлтон Кьюз

rating

В ролях:

Джон Красински, Уенделл Пирс, Джон Хугенэккер, Эбби Корниш, Али Сулиман, Хааз Слейман, Эммануэль Люссье Мартинес, Йован Адепо

Описание:

Аналитик ЦРУ Джек Райан натыкается на подозрительную серию банковских переводов и начинает собственное расследование. Оно заставляет героя оставить безопасную офисную работу и включиться в смертельную игру кошки-мышки по всей Европе и на Ближнем Востоке с лидером террористов, готовящим массированную атаку на США и её союзников.

Качество: WEBRip
Формат: AVI

Видео: ~ 1367 Кбит/с, 720x400, 23.976 fps
Аудио: Русский / MP3 / 2.0 / 192kbs
скриншот   скриншот   скриншот   скриншот  

Общее
Полное имя : D:\Tom.Clancys.Jack.Ryan.S01.400p.ColdFilm\Tom.Clancys.Jack.Ryan.S01E01.400p.ColdFilm.avi
Формат : AVI
Формат/Информация : Audio Video Interleave
Размер файла : 762 Мбайт
Продолжительность : 1 ч. 5 м.
Общий поток : 1628 Кбит/сек
Программа кодирования : Lavf54.63.104

Видео
Идентификатор : 0
Формат : xvid
Идентификатор кодека : xvid
Продолжительность : 1 ч. 5 м.
Битрейт : 1423 Кбит/сек
Ширина : 720 пикселей
Высота : 400 пикселей
Соотношение сторон : 16:9
Частота кадров : 23,976 кадра/сек
Тип развёртки : Прогрессивная
Бит/(Пиксели*Кадры) : 0.206
Размер потока : 666 Мбайт (87%)

Аудио
Идентификатор : 1
Формат : MPEG Audio
Версия формата : Version 1
Профиль формата : Layer 3
Режим : Joint stereo
Расширение режима : MS Stereo
Идентификатор кодека : 55
Идентификатор кодека/Подсказка : MP3
Продолжительность : 1 ч. 5 м.
Вид битрейта : Постоянный
Битрейт : 192 Кбит/сек
Каналы : 2 канала
Частота : 48,0 КГц
Метод сжатия : С потерями
Размер потока : 89,9 Мбайт (12%)
Выравнивание : Соединение по промежуткам
Продолжительность промежутка : 24 мс. (0,58 видеокадр)
Библиотека кодирования : LAME3.99.5

pb.wtf



Скачать Джек Райан через торрент https://a.radikal.ru/a37/1809/09/9079467f76d7.jpg Скачать фильм Джек Райан через торрент бесплантно в хорошем качестве Описание: Аналитик ЦРУ Джек Райан натыкается на подозрительную серию банковских переводов и начинает собственное расследование. Оно ... 10 10 2
Торрент: Зарегистрирован [2018-09-01 15:45] · скачан: 39 раз
Статус: √ проверено
Размер: 4.4 GB
Как cкачать? Как скачать Джек Райан через торрент | qTorrent

% Раздел Тема Автор DL S | L
Зарубежные сериалы [ 12.74 GB ] Джек Райан / Jack Ryan / Сезон: 2 / Серии: 1-8 из 8 [2019 WEBRip 720p] [DVO] killermax2013 Скачать
1 | 0
Зарубежные сериалы [ 24.67 GB ] Джек Райан / Jack Ryan / Сезон: 2 / Серии: 1-8 из 8 [2019 WEB-DL 1080p] MVO [TVShows] bober100 Скачать
1 | 0
Зарубежные сериалы [ 23.85 GB ] Джек Райан / Jack Ryan / Сезон: 2 / Серия: 1-8 из 8 [2019 WEB-DL 1080p] MVO [Jaskier] bober100 Скачать
1 | 0
Зарубежные сериалы [ 11.42 GB ] Джек Райан / Jack Ryan / Сезон: 2 / Серия: 1-8 из 8 [2019 WEB-DL 720p] MVO [Jaskier] bober100 Скачать
1 | 0
Зарубежные сериалы [ 4.31 GB ] Джек Райан / Jack Ryan / Сезон: 2 / Серия: 1-8 из 8 [2019 WEB-DLRip] MVO [Jaskier] bober100 Скачать
1 | 0
Зарубежные сериалы [ 12.74 GB ] Джек Райан / Jack Ryan / Сезон: 2 / Серия: 1-8 из 8 [2019 WEB-DL 720p] MVO [Lostfilm] bober100 Скачать
1 | 0
Зарубежные сериалы [ 5.16 GB ] Джек Райан / Jack Ryan / Сезон: 2 / Серии: 1-8 из 8 [2019 WEB-DLRip] MVO [LostFilm] bober100 Скачать
1 | 0

28-11-2019 20:33  

Отключить всю рекламу на сайте

    Дорогой пользователь! Огромная просьба, поблагодарите релизера, оцените раздачу и оставьте свои комментарий, если Вы скачали Джек Райан через торрент бесплатно! Внесите свою лепту в развитие PiratBit!
    Комментировать посты могут только пользователи прошедшие не сложную регистрацию
    Показать сообщения:    

    Джек Райан через торрент
    Скачать бесплатно Джек Райан
    Джек Райан скачать торрент
    Джек Райан смотреть онлайн
    Cкачать фильм Джек Райан бесплатно
    Джек Райан скачать торрент в хорошем качестве
    Джек Райан смотреть онлайн бесплатно в хорошем качестве


    Вы не можете начинать темы
    Вы не можете отвечать на сообщения
    Вы не можете редактировать свои сообщения
    Вы не можете удалять свои сообщения
    Вы не можете голосовать в опросах
    Вы не можете прикреплять файлы к сообщениям
    Вы можете скачивать файлы