Ссылка на приватное зеркало нашего сайта всего за 1$. Внимание количество ограничено!!!

2 сезон

iTunes

1 сезон

1

2 сезон

2 сезон

iTunes

1 сезон

RePack

30

Новинка

ВАЖНО

ИГРА 18+

pack

RePack

MK11
pack

Забери бонус

RePack

jed

!!Акция!!

Alien_Rage

RePack

fifa19

RePack

Assassins Creed: Odyssey

RePack

NEED FOR SPEED™ PAYBACK

4 сезон

9 сезон

Бесстыжие 9 сезон

Все сериалы

все сериалы на PB.wtf

RePack

FAR CRY 5
  

Реллик / Rellik / Сезон: 1 / Серии: 1-6 из 6 ( Сэм Миллер, Ханс Херботс) [2017, Драма, криминал, детектив, WEB-DL 720p] MVO [Jaskier] pb.wtf

Реллик через торрент pb.wtf

Размер: 12.43 GB | Добавлен: 2 года 2 мес. назад | Торрент скачан:21 раз
Скачать  

01-09-2018 16:00 Реллик Скачать торрент  

Реллик / Rellik Год выпуска: 2017
Страна: Великобритания
Жанр: Драма, криминал, детектив
Продолжительность: 00:25:00
Перевод: Профессиональный (многоголосый закадровый) | Jaskier

Режиссёр: Сэм Миллер, Ханс Херботс

В ролях:

Ричард Дормер, Рис Ричи, Джоди Бальфур, Киран Бью, Александр Джиллисон, Сьюзэн Хьюз, Джозеф Макнаб, Лерке Винтер Андерсен

Описание:

Занимаясь поиском серийного убийцы, старший инспектор Маркэм и его команда пытаются определить личность преступника. Хронология событий в сериале выстраивается наоборот - из конца в начало... "Реллик" - это написанный задом наперёд "Киллер"...



Качество: WEB-DL 720p
Формат: MKV

Видео: 1280x720 (16:9) | X264 | ~4282 kbps | 23.976 fps
Аудио 1: AC3, 48,0 КГц, 6 ch, 384 kbps - [RUS]
Аудио 2: AC3, 48,0 КГц, 6 ch, 384 kbps - [ENG]


Реклама: Присутствует звуковая (два раза в начале и конце по 10 сек.)
Переведено и озвучено: студией Jaskier
Общее
Уникальный идентификатор                 : 236346270679643816217618843963946398556 (0xB1CEA2D08B1374D547BACE072F2F735C)
Полное имя                               : F:\Jaskier\Rellik Season 1 (WEB-DL l 720p l Jaskier)\Rellik.S01E01.WEB-DL.720p.Jaskier.mkv
Формат                                   : Matroska
Версия формата                           : Version 4 / Version 2
Размер файла                             : 2,00 Гбайт
Продолжительность                        : 56 м. 43 с.
Общий поток                              : 5052 Кбит/сек
Дата кодирования                         : UTC 2018-09-01 14:49:08
Программа кодирования                    : mkvmerge v19.0.0 ('Brave Captain') 64-bit
Библиотека кодирования                   : libebml v1.3.5 + libmatroska v1.4.8

Видео
Идентификатор                            : 1
Формат                                   : AVC
Формат/Информация                        : Advanced Video Codec
Профиль формата                          : High@L4.1
Настройки формата                        : CABAC / 9 Ref Frames
Параметр CABAC формата                   : Да
Параметр RefFrames формата               : 9 кадров
Идентификатор кодека                     : V_MPEG4/ISO/AVC
Продолжительность                        : 56 м. 43 с.
Битрейт                                  : 4282 Кбит/сек
Ширина                                   : 1280 пикселей
Высота                                   : 720 пикселей
Соотношение сторон                       : 16:9
Режим частоты кадров                     : Постоянный
Частота кадров                           : 25,000 кадров/сек
Цветовое пространство                    : YUV
Субдискретизация насыщенности            : 4:2:0
Битовая глубина                          : 8 бит
Тип развёртки                            : Прогрессивная
Бит/(Пиксели*Кадры)                      : 0.186
Размер потока                            : 1,70 Гбайт (85%)
Библиотека кодирования                   : x264 core 148 r2638 7599210
Настройки программы                      : cabac=1 / ref=9 / deblock=1:-3:-3 / analyse=0x3:0x133 / me=umh / subme=10 / psy=1 / psy_rd=1.00:0.00 / mixed_ref=1 / me_range=48 / chroma_me=1 / trellis=2 / 8x8dct=1 / cqm=0 / deadzone=21,11 / fast_pskip=0 / chroma_qp_offset=-2 / threads=12 / lookahead_threads=2 / sliced_threads=0 / nr=0 / decimate=0 / interlaced=0 / bluray_compat=0 / constrained_intra=0 / bframes=9 / b_pyramid=0 / b_adapt=2 / b_bias=0 / direct=3 / weightb=1 / open_gop=0 / weightp=2 / keyint=250 / keyint_min=25 / scenecut=40 / intra_refresh=0 / rc=crf / mbtree=0 / crf=17.0 / qcomp=0.60 / qpmin=10 / qpmax=51 / qpstep=4 / ip_ratio=1.40 / pb_ratio=1.30 / aq=3:0.70
Default                                  : Да
Forced                                   : Нет

Аудио #1
Идентификатор                            : 2
Формат                                   : AC-3
Формат/Информация                        : Audio Coding 3
Идентификатор кодека                     : A_AC3
Продолжительность                        : 56 м. 43 с.
Вид битрейта                             : Постоянный
Битрейт                                  : 384 Кбит/сек
Каналы                                   : 6 каналов
Расположение каналов                     : Front: L C R, Side: L R, LFE
Частота                                  : 48,0 КГц
Частота кадров                           : 31,250 кадров/сек (1536 SPF)
Битовая глубина                          : 16 бит
Метод сжатия                             : С потерями
Размер потока                            : 156 Мбайт (8%)
Язык                                     : Russian
ServiceKind/String                       : Complete Main
Default                                  : Да
Forced                                   : Нет

Аудио #2
Идентификатор                            : 3
Формат                                   : AC-3
Формат/Информация                        : Audio Coding 3
Идентификатор кодека                     : A_AC3
Продолжительность                        : 56 м. 43 с.
Вид битрейта                             : Постоянный
Битрейт                                  : 384 Кбит/сек
Каналы                                   : 6 каналов
Расположение каналов                     : Front: L C R, Side: L R, LFE
Частота                                  : 48,0 КГц
Частота кадров                           : 31,250 кадров/сек (1536 SPF)
Битовая глубина                          : 16 бит
Метод сжатия                             : С потерями
Размер потока                            : 156 Мбайт (8%)
Язык                                     : English
ServiceKind/String                       : Complete Main
Default                                  : Нет
Forced                                   : Нет
скриншот  скриншот  скриншот  
pb.wtf



Скачать Реллик через торрент http://i103.fastpic.ru/big/2018/0901/ea/938977c840d72a16220b1b1c82e4d4ea.jpg Скачать фильм Реллик через торрент бесплантно в хорошем качестве Описание: Занимаясь поиском серийного убийцы, старший инспектор Маркэм и его команда пытаются определить личность преступника. Хронология ... 10 10 4
Торрент: Зарегистрирован [2018-09-01 16:00] · скачан: 21 раз
Статус: √ проверено
Размер: 12.43 GB
Как cкачать? Как скачать Реллик через торрент | qTorrent

% Раздел Тема Автор DL S | L
Зарубежные сериалы [ 4.11 GB ] Реллик / Rellik / Сезон: 1 / Серии: 1-6 из 6 [2017 WEB-DLRip] MVO [Jaskier] bober100 Скачать
1 | 0
Зарубежные сериалы [ 4.01 GB ] Реллик / Rellik / Сезон: 1 / Серии 1-6 из 6 [2017 WEBRip] [MVO] killermax2013 Скачать
2 | 0
Зарубежные сериалы [ 13.66 GB ] Реллик / Rellik / Сезон: 1 / Серии 1-6 из 6 [2017 WEBRip 720p] [MVO] killermax2013 Скачать
2 | 0
Зарубежные сериалы [ 12.43 GB ] Реллик / Rellik / Сезон: 1 / Серии 1-6 из 6 [2017 WEBRip 720p] MVO GEKADOL Скачать
1 | 0

28-11-2019 20:33  

Отключить всю рекламу на сайте

    Дорогой пользователь! Огромная просьба, поблагодарите релизера, оцените раздачу и оставьте свои комментарий, если Вы скачали Реллик через торрент бесплатно! Внесите свою лепту в развитие PiratBit!
    Комментировать посты могут только пользователи прошедшие не сложную регистрацию
    Показать сообщения:    

    Реллик через торрент
    Скачать бесплатно Реллик
    Реллик скачать торрент
    Реллик смотреть онлайн
    Cкачать фильм Реллик бесплатно
    Реллик скачать торрент в хорошем качестве
    Реллик смотреть онлайн бесплатно в хорошем качестве


    Вы не можете начинать темы
    Вы не можете отвечать на сообщения
    Вы не можете редактировать свои сообщения
    Вы не можете удалять свои сообщения
    Вы не можете голосовать в опросах
    Вы не можете прикреплять файлы к сообщениям
    Вы можете скачивать файлы