Ссылка на приватное зеркало нашего сайта всего за 1$. Внимание количество ограничено!!!

2 сезон

iTunes

1 сезон

1

2 сезон

2 сезон

iTunes

1 сезон

RePack

30

Ultimate

ВАЖНО

ИГРА 18+

pack

RePack

MK11
pack

Забери бонус

RePack

jed

!!Акция!!

Alien_Rage

RePack

fifa19

RePack

Assassins Creed: Odyssey

RePack

NEED FOR SPEED™ PAYBACK

4 сезон

9 сезон

Бесстыжие 9 сезон

Все сериалы

все сериалы на PB.wtf

RePack

FAR CRY 5
  

Озарк / Ozark / Сезон: 2 / Серии: 1-10 из 10 (Эндрю Бернштейн, Эллен Кёрас, Дэниэл Сакхайм) [2018, Триллер, драма, криминал, WEBRip] MVO [ColdFilm] pb.wtf

Озарк через торрент pb.wtf

Размер: 6.22 GB | Добавлен: 2 года 2 мес. назад | Торрент скачан:66 раз
Скачать  

01-09-2018 17:48 Озарк Скачать торрент  

Озарк / Ozark
Год выпуска: 2018
Страна: США
Жанр: Триллер, драма, криминал
Продолжительность: ~ 00:55:00
Перевод: Любительский (многоголосый) |
Субтитры: отсутствуют

Режиссер: Эндрю Бернштейн, Эллен Кёрас, Дэниэл Сакхайм

rating

В ролях:

Джейсон Бейтмен, Лора Линни, София Хьюблиц, Джейсон Батлер Харнер, Джулия Гарнер, Энтони Коллинс, Скайлар Гертнер, Джордана Спиро, Кристофер Джеймс Бэйкер, Марк Менчака, Лиза Эмери, Питер Муллан, Эсай Моралес, Бетани Энн Линд

Описание:

Финансовый консультант Марти Бёрд вместе с женой Вэнди и остальными членами семьи вынужден переехать из престижного предместья Чикаго в курортный городок Озарк штата Миссури. К неожиданному переезду главного героя вынудили крупные долги, и на новом месте он надеется поправить своё финансовое положение.

Качество: WEBRip
Формат: AVI

Видео: ~ 1165 Кбит/с, 720x358, 29.970 fps
Аудио: Русский / MP3 / 2.0 / 192kbs
скриншот   скриншот   скриншот   скриншот  

Общее
Полное имя : D:\Ozark.S02.400p.ColdFilm\Ozark.S02E01.400p.ColdFilm.avi
Формат : AVI
Формат/Информация : Audio Video Interleave
Размер файла : 610 Мбайт
Продолжительность : 1 ч. 1 м.
Общий поток : 1398 Кбит/сек
Программа кодирования : Lavf57.40.101

Видео
Идентификатор : 0
Формат : MPEG-4 Visual
Параметр BVOP формата : Нет
Параметр QPel формата : Нет
Параметр GMC формата : Без точки перехода
Параметр матрицы формата : Default (H.263)
Идентификатор кодека : FMP4
Продолжительность : 1 ч. 1 м.
Битрейт : 1175 Кбит/сек
Ширина : 720 пикселей
Высота : 358 пикселей
Соотношение сторон : 2,011
Режим частоты кадров : Переменный
Частота кадров : 119,880 (24/30) кадров/сек
Минимальная частота кадров : 23,976 кадра/сек
Максимальная частота кадров : 29,970 кадров/сек
Цветовое пространство : YUV
Субдискретизация насыщенности : 4:2:0
Битовая глубина : 8 бит
Тип развёртки : Прогрессивная
Метод сжатия : С потерями
Бит/(Пиксели*Кадры) : 0.038
Размер потока : 513 Мбайт (84%)
Библиотека кодирования : Lavc57.48.101

Аудио
Идентификатор : 1
Формат : MPEG Audio
Версия формата : Version 1
Профиль формата : Layer 3
Режим : Joint stereo
Идентификатор кодека : 55
Идентификатор кодека/Подсказка : MP3
Продолжительность : 1 ч. 1 м.
Вид битрейта : Постоянный
Битрейт : 192 Кбит/сек
Каналы : 2 канала
Частота : 48,0 КГц
Метод сжатия : С потерями
Размер потока : 83,8 Мбайт (14%)
Выравнивание : Соединение по промежуткам
Продолжительность промежутка : 24 мс. (2,88 видеокадра)

pb.wtf



Скачать Озарк через торрент http://i4.imageban.ru/out/2018/09/01/0fe9c3061e592b3e3bb3d8b0a61ba484.jpg Скачать фильм Озарк через торрент бесплантно в хорошем качестве Описание: Финансовый консультант Марти Бёрд вместе с женой Вэнди и остальными членами семьи вынужден переехать из престижного предместья ... 10 10 3
Торрент: Зарегистрирован [2018-09-01 17:48] · скачан: 66 раз
Статус: √ проверено
Размер: 6.22 GB
Как cкачать? Как скачать Озарк через торрент | qTorrent

% Раздел Тема Автор DL S | L
Зарубежные сериалы [ 8.6 GB ] Озарк / Ozark / Сезон: 2 / Серии: 1-10 из 10 [2018 WEBRip] DUB [Пифагор / Netflix] bober100 Скачать
2 | 0
Зарубежные сериалы [ 43.36 GB ] Озарк / Ozark / Сезон: 2 / Серии: 1-10 из 10 [2018 WEBRip 1080p] DUB [Пифагор / Netflix] bober100 Скачать
4 | 0
Зарубежные сериалы [ 21.91 GB ] Озарк / Ozark / Сезон: 2 / Серии: 1-10 из 10 [2018 WEBRip 720p] [DVO] killermax2013 Скачать
1 | 0
Зарубежные сериалы [ 122.99 GB ] Озарк / Ozark / Сезон: 2 / Серии: 1-10 из 10 [2018 UHD WEBRip 2160p] 3xMVO [LostFilm Baibako NewStudio] sheker187 Скачать
1 | 0
Зарубежные сериалы [ 7.41 GB ] Озарк / Ozark / Сезон: 2 / Серии: 1-10 из 10 [2018 WEBRip] [MVO] killermax2013 Скачать
1 | 0
Зарубежные сериалы [ 30.45 GB ] Озарк / Ozark / Сезон: 2 / Серии: 1-10 из 10 [2018 WEBRip 1080p] MVO [Baibako] bober100 Скачать
1 | 0
Зарубежные сериалы [ 7.41 GB ] Озарк / Ozark / Сезон: 2 / Серии: 1-10 из 10 [2018 WEBRip] MVO [LostFilm] bober100 Скачать
1 | 0

28-11-2019 20:33  

Отключить всю рекламу на сайте

    Дорогой пользователь! Огромная просьба, поблагодарите релизера, оцените раздачу и оставьте свои комментарий, если Вы скачали Озарк через торрент бесплатно! Внесите свою лепту в развитие PiratBit!
    Комментировать посты могут только пользователи прошедшие не сложную регистрацию
    Показать сообщения:    

    Озарк через торрент
    Скачать бесплатно Озарк
    Озарк скачать торрент
    Озарк смотреть онлайн
    Cкачать фильм Озарк бесплатно
    Озарк скачать торрент в хорошем качестве
    Озарк смотреть онлайн бесплатно в хорошем качестве


    Вы не можете начинать темы
    Вы не можете отвечать на сообщения
    Вы не можете редактировать свои сообщения
    Вы не можете удалять свои сообщения
    Вы не можете голосовать в опросах
    Вы не можете прикреплять файлы к сообщениям
    Вы можете скачивать файлы