Ссылка на приватное зеркало нашего сайта всего за 1$. Внимание количество ограничено!!!

2 сезон

iTunes

1 сезон

1

2 сезон

2 сезон

iTunes

1 сезон

RePack

30

Новинка

ВАЖНО

ИГРА 18+

pack

RePack

MK11
pack

Забери бонус

RePack

jed

!!Акция!!

Alien_Rage

RePack

fifa19

RePack

Assassins Creed: Odyssey

RePack

NEED FOR SPEED™ PAYBACK

4 сезон

9 сезон

Бесстыжие 9 сезон

Все сериалы

все сериалы на PB.wtf

RePack

FAR CRY 5
  

Доллар / One Dollar / Сезон: 1 / Серии: 1-9 из 10 (Крэйг Зобел) [2018, Триллер, WEBRip] MVO [ColdFilm] pb.wtf

Доллар через торрент pb.wtf

Размер: 4.39 GB | Добавлен: 2 года назад | Торрент скачан:2 раза
Скачать  

01-09-2018 20:22 Доллар Скачать торрент  

Доллар / One Dollar
Год выпуска: 2018
Страна: США
Жанр: Триллер
Продолжительность: ~ 00:53:00
Перевод: Любительский (многоголосый) |
Субтитры: отсутствуют

Режиссер: Крэйг Зобел

rating

В ролях:

Джон Кэрролл Линч, Натаниэль Мартелло-Уайт, Кристофер Денэм, Лесли Одом мл., Джошуа Битон, Филип Эттинджер, Грейси Лоуренс, Джефф Перри, Стерджил Симпсон

Описание:

Маленький американский городок приходит в себя после экономического кризиса 2007-2009 гг. Меняя владельцев, купюра в один доллар постепенно объединяет группу незнакомцев, причастных к шокирующим убийствам.

Качество: WEBRip
Формат: AVI

Видео: ~ 1299 Кбит/с, 720x400, 25.000 fps
Аудио: Русский / AC3 / 2.0 / 192kbs
скриншот   скриншот   скриншот   скриншот  

Общее
Полное имя : E:\One.Dollar.S01.400p.ColdFilm\One.Dollar.S01E01.400p.ColdFilm.avi
Формат : AVI
Формат/Информация : Audio Video Interleave
Размер файла : 534 Мбайт
Продолжительность : 52 м. 11 с.
Общий поток : 1430 Кбит/сек
Программа кодирования : VirtualDubMod 1.5.10.2 (build 2540/release)
Библиотека кодирования : VirtualDubMod build 2540/release

Видео
Идентификатор : 0
Формат : xvid
Идентификатор кодека : xvid
Продолжительность : 52 м. 11 с.
Продолжительность оригинала : 30 м. 20 с.
Битрейт : 1164 Кбит/сек
Ширина : 720 пикселей
Высота : 400 пикселей
Соотношение сторон : 16:9
Частота кадров : 25,000 кадров/сек
Бит/(Пиксели*Кадры) : 0.162
Размер потока : 253 Мбайт (47%)

Аудио
Идентификатор : 1
Формат : AC-3
Формат/Информация : Audio Coding 3
Идентификатор кодека : 2000
Продолжительность : 52 м. 11 с.
Продолжительность оригинала : 30 м. 20 с.
Вид битрейта : Постоянный
Битрейт : 192 Кбит/сек
Каналы : 2 канала
Расположение каналов : Front: L R
Частота : 48,0 КГц
Частота кадров : 31,250 кадров/сек (1536 SPF)
Битовая глубина : 16 бит
Метод сжатия : С потерями
Размер потока : 41,7 Мбайт (8%)
Выравнивание : Разделение по промежуткам
Продолжительность промежутка : 40 мс. (1,00 видеокадр)
Время предзагрузки промежутка : 500 мс.
ServiceKind/String : Complete Main

Когда раздача ведётся путём добавления новых серий, при каждом добавлении создётся новый торрент. Чтобы начать докачку новой серии, пользователям необходимо сделать следующее:
(1) остановить скачивание,
(2) удалить старый торрент у себя из клиента (старые серии удалять не надо),
(3) скачать новый торрент и запустить его у себя в клиенте вместо старого, при этом указать клиенту путь в старую папку, куда и должно происходить скачивание новых серий.
Ваш клиент при этом должен произвести хеширование (проверку) старой папки (если не производит сам - помогите ему сделать это), и будет докачивать только те серии, которых у вас ещё нет. Старые серии при этом не удаляются, а продолжают раздаваться!
Eсли вы уже удалили старые серии, то предотвратить повторную закачку старых серий можно, отжав галочку в соответствующих местах при запуске нового торрента. По возможности, желательно не удалять старые серии как можно дольше, чтобы релизер не столько продолжал раздавать старые серии, а смог сконцентрироваться на новых.
pb.wtf



Скачать Доллар через торрент http://i6.imageban.ru/out/2018/09/01/ab69d5c20b18b8eb6a1587eebfa63b31.jpg Скачать фильм Доллар через торрент бесплантно в хорошем качестве Описание: Маленький американский городок приходит в себя после экономического кризиса 2007-2009 гг. Меняя владельцев, купюра в один доллар ... 8.4 10 7
Торрент: Зарегистрирован [2018-11-17 01:15] · скачан: 2 раз
Статус: √ проверено
Размер: 4.39 GB
Как cкачать? Как скачать Доллар через торрент | qTorrent

% Раздел Тема Автор DL S | L
Зарубежные сериалы [ 12.26 GB ] Доллар / One Dollar / Сезон: 1 / Серии: 1-9 из 10 [2018 WEBRip 720p] MVO [ColdFilm] bober100 Скачать
1 | 0

28-11-2019 20:33  

Отключить всю рекламу на сайте

    Дорогой пользователь! Огромная просьба, поблагодарите релизера, оцените раздачу и оставьте свои комментарий, если Вы скачали Доллар через торрент бесплатно! Внесите свою лепту в развитие PiratBit!
    Комментировать посты могут только пользователи прошедшие не сложную регистрацию
    Показать сообщения:    

    Доллар через торрент
    Скачать бесплатно Доллар
    Доллар скачать торрент
    Доллар смотреть онлайн
    Cкачать фильм Доллар бесплатно
    Доллар скачать торрент в хорошем качестве
    Доллар смотреть онлайн бесплатно в хорошем качестве


    Вы не можете начинать темы
    Вы не можете отвечать на сообщения
    Вы не можете редактировать свои сообщения
    Вы не можете удалять свои сообщения
    Вы не можете голосовать в опросах
    Вы не можете прикреплять файлы к сообщениям
    Вы можете скачивать файлы