Ссылка на приватное зеркало нашего сайта всего за 1$. Внимание количество ограничено!!!

2 сезон

iTunes

1 сезон

1

iTunes

iTunes

iTunes

1 сезон

RePack

30

ИГРА 18+

pack

ВАЖНО

!!Акция!!

Alien_RageХит недели

RePack

MK11
pack

Забери бонус

RePack

jed

!!Акция!!

Alien_Rage

RePack

fifa19

RePack

Assassins Creed: Odyssey

RePack

NEED FOR SPEED™ PAYBACK

4 сезон

9 сезон

Бесстыжие 9 сезон

Все сериалы

все сериалы на PB.wtf

RePack

FAR CRY 5
  

Доктор Улитка / Серии: 1-4 из 4 (Эдуард Пальмов) [2018,мелодрама,SATRip-AVC] pb.wtf

Доктор Улитка через торрент pb.wtf

Размер: 2.38 GB | Добавлен: 2 года 1 мес. назад | Торрент скачан:61 раз
Скачать  

01-09-2018 21:20 Доктор Улитка Скачать торрент  

Доктор Улитка

Год выпуска: 2018
Страна: Россия | Паламеда продакшн | Фабула
Жанр: мелодрама
Продолжительность: 00:44:00
Субтитры: нет
Режиссёр: Эдуард Пальмов

В ролях:Мария Куликова, Владислав Резник, Александр Ефимов, Анатолий Голуб, Алиса Авчинник
Описание:
Доктора Киру Улитину за нерешительность называют Улиткой. Но Улитка она только в личной жизни – верит всему, что говорит ей женатый возлюбленный и начальник Виктор Савельев , боится надавить на него и потребовать развестись с женой. В работе же Кира – редкий профессионал, врач-акушер от Бога, на счету которой множество спасенных жизней. Вот только коллеги не всегда прислушиваются к ее мнению, и однажды по их вине на операционном столе Киры погибает ребенок.

Качество: SATRip-AVC
Формат: MKV
Видео кодек: H.264
Аудио кодек: AC3
Видео: MPEG4 Video (H264), 720x400, 25fps,1700 Kbps,bit/pixel 0.236
Аудио : AC3 48000Hz, stereo, 192 kbps,2 ch
Общее
Уникальный идентификатор : 217295025113973303117650090959062386760 (0xA3797FE36205F81889CC3A9C03AF4848)
Полное имя : F:\Доктор Улитка\01 серия_Доктор Улитка_rip by_Aleksan55.mkv
Формат : Matroska
Версия формата : Version 2
Размер файла : 605 Мбайт
Продолжительность : 44 м. 40 с.
Общий поток : 1893 Кбит/сек
Дата кодирования : UTC 2018-09-01 15:14:06
Программа кодирования : mkvmerge v7.8.0 ('River Man') 32bit built on Apr 3 2015 12:11:22
Библиотека кодирования : libebml v1.3.1 + libmatroska v1.4.2

Видео
Идентификатор : 1
Формат : AVC
Формат/Информация : Advanced Video Codec
Профиль формата : High@L4.1
Параметр CABAC формата : Да
Параметр ReFrames формата : 14 кадров
Идентификатор кодека : V_MPEG4/ISO/AVC
Продолжительность : 44 м. 40 с.
Битрейт : 1700 Кбит/сек
Ширина : 720 пикселей
Высота : 400 пикселей
Соотношение сторон : 16:9
Режим частоты кадров : Постоянный
Частота кадров : 25,000 кадров/сек
Цветовое пространство : YUV
Субдискретизация насыщенности : 4:2:0
Битовая глубина : 8 бит
Тип развёртки : Прогрессивная
Бит/(Пиксели*Кадры) : 0.236
Размер потока : 532 Мбайт (88%)
Библиотека кодирования : x264 core 146 r2538 121396c
Настройки программы : cabac=1 / ref=14 / deblock=1:-1:-1 / analyse=0x3:0x133 / me=umh / subme=9 / psy=1 / psy_rd=0.90:0.15 / mixed_ref=0 / me_range=32 / chroma_me=1 / trellis=2 / 8x8dct=1 / cqm=0 / deadzone=21,11 / fast_pskip=1 / chroma_qp_offset=-3 / threads=12 / lookahead_threads=1 / sliced_threads=0 / nr=0 / decimate=0 / interlaced=0 / bluray_compat=0 / constrained_intra=0 / bframes=14 / b_pyramid=2 / b_adapt=1 / b_bias=0 / direct=3 / weightb=1 / open_gop=0 / weightp=2 / keyint=250 / keyint_min=25 / scenecut=40 / intra_refresh=0 / rc_lookahead=40 / rc=2pass / mbtree=1 / bitrate=1700 / ratetol=1.0 / qcomp=0.60 / qpmin=0 / qpmax=39 / qpstep=4 / cplxblur=20.0 / qblur=0.5 / ip_ratio=1.40 / aq=1:1.00
Default : Да
Forced : Нет
Цветовой диапазон : Limited
Основные цвета : BT.709
Характеристики трансфера : BT.709
Коэффициенты матрицы : BT.709

Аудио
Идентификатор : 2
Формат : AC-3
Формат/Информация : Audio Coding 3
Расширение режима : CM (complete main)
Параметр Endianness формата : Big
Идентификатор кодека : A_AC3
Продолжительность : 44 м. 40 с.
Вид битрейта : Постоянный
Битрейт : 192 Кбит/сек
Каналы : 2 канала
Расположение каналов : Front: L R
Частота : 48,0 КГц
Частота кадров : 31,250 кадров/сек (1536 spf)
Битовая глубина : 16 бит
Метод сжатия : С потерями
Размер потока : 61,4 Мбайт (10%)
Default : Да
Forced : Нет :
pb.wtf



Скачать Доктор Улитка через торрент http://i102.fastpic.ru/big/2018/0901/5d/4b9edfa7ac9b7bb9463a43572c43645d.png Скачать фильм Доктор Улитка через торрент бесплантно в хорошем качестве Описание:Доктора Киру Улитину за нерешительность называют Улиткой. Но Улитка она только в личной жизни – верит всему, что говорит ей ... 5 10 1
Торрент: Зарегистрирован [2018-09-01 21:20] · скачан: 61 раз
Статус: √ проверено
Размер: 2.38 GB
Как cкачать? Как скачать Доктор Улитка через торрент | qTorrent

% Раздел Тема Автор DL S | L
Наши сериалы [ 2.33 GB ] Доктор Улитка / Серии: 1-4 из 4 [2018 Мело SATRip] bober100 Скачать
1 | 0

28-11-2019 20:33  

Отключить всю рекламу на сайте

    Дорогой пользователь! Огромная просьба, поблагодарите релизера, оцените раздачу и оставьте свои комментарий, если Вы скачали Доктор Улитка через торрент бесплатно! Внесите свою лепту в развитие PiratBit!
    Комментировать посты могут только пользователи прошедшие не сложную регистрацию
    Показать сообщения:    

    Доктор Улитка через торрент
    Скачать бесплатно Доктор Улитка
    Доктор Улитка скачать торрент
    Доктор Улитка смотреть онлайн
    Cкачать фильм Доктор Улитка бесплатно
    Доктор Улитка скачать торрент в хорошем качестве
    Доктор Улитка смотреть онлайн бесплатно в хорошем качестве


    Вы не можете начинать темы
    Вы не можете отвечать на сообщения
    Вы не можете редактировать свои сообщения
    Вы не можете удалять свои сообщения
    Вы не можете голосовать в опросах
    Вы не можете прикреплять файлы к сообщениям
    Вы можете скачивать файлы