2 сезон

iTunes

1 сезон

1

iTunes

iTunes

iTunes

1 сезон

RePack

30

ИГРА 18+

pack

ВАЖНО

!!Акция!!

Alien_RageХит недели

RePack

MK11
pack

Забери бонус

RePack

jed

!!Акция!!

Alien_Rage

RePack

fifa19

RePack

Assassins Creed: Odyssey

RePack

NEED FOR SPEED™ PAYBACK

4 сезон

9 сезон

Бесстыжие 9 сезон

Все сериалы

все сериалы на PB.wtf

RePack

FAR CRY 5
  

Доктор Улитка / Сезон: 1 / Серии: 1-2 из 2 (Эдуард Пальмов) [2018, мелодрама, HDTV 1080p] Не требуется [Русский] R.G.Generalfilm pb.wtf

Доктор Улитка через торрент pb.wtf

Размер: 9 GB | Добавлен: 2 года 1 мес. назад | Торрент скачан:26 раз
Скачать  

02-09-2018 15:51 Доктор Улитка Скачать торрент  

Доктор Улитка


Год выпуска: 2018
Страна: Россия
Жанр: мелодрама
Продолжительность: 01:28:31
Перевод: Не требуется [Русский]
Режиссер: Эдуард Пальмов
В ролях:

Мария Куликова (Кира Улитина), Владислав Резник (Сергей Крутов), Александр Ефимов (Виктор Савельев), Анатолий Голуб, Алиса Авчинник
Описание:
Доктора Киру Улитину за нерешительность называют Улиткой. Но Улитка она только в личной жизни - верит всему, что говорит ей женатый возлюбленный и начальник Виктор Савельев. В работе же Кира - редкий профессионал, врач-акушер от Бога. Но однажды по вине коллег на операционном столе Киры погибает ребенок, и Савельев показательно ее увольняет.

Качество: HDTV 1080p Запись с
Формат: MKV
Видео кодек: AVC
Аудио кодек: AC3
Видео: AVC, 1920x1080 (16:9), 7050 kbps, 25 fps, 0,136 bpp
Аудио: AC3 / 2.0 / 48 kHz / 192 kbps /
General
Unique ID : 252749999185369348876033483268519952928 (0xBE25E1126E831056ACC6C840DABD0220)
Complete name : E:\Запись с тв\doktor ulitka 2018.HDTV 1080p.R.G.Generalfilm\doktor ulitka..s01.e01.2018.HDTV 1080p.by.White Smoke.R.G.Generalfilm.mkv
Format : Matroska
Format version : Version 2
File size : 4.48 GiB
Duration : 1 h 28 min
Overall bit rate mode : Constant
Overall bit rate : 7 239 kb/s
Movie name : doktor ulitka..s01.e01.2018.HDTV 1080p.by.White Smoke.R.G.Generalfilm.mkv
Encoded date : UTC 2018-09-02 15:04:08
Writing application : mkvmerge v7.6.0 ('Garden of Dreams') 32bit built on Feb 11 2015 00:18:47
Writing library : libebml v1.3.1 + libmatroska v1.4.2
Cover : Yes
Attachments : cover.png

Video
ID : 1
Format : AVC
Format/Info : Advanced Video Codec
Format profile : High@L4.1
Format settings, CABAC : Yes
Format settings, ReFrames : 3 frames
Format settings, GOP : M=3, N=33
Codec ID : V_MPEG4/ISO/AVC
Duration : 1 h 28 min
Bit rate mode : Constant
Bit rate : 7 051 kb/s
Width : 1 920 pixels
Height : 1 080 pixels
Display aspect ratio : 16:9
Frame rate mode : Constant
Frame rate : 25.000 FPS
Standard : PAL
Color space : YUV
Chroma subsampling : 4:2:0
Bit depth : 8 bits
Scan type : Progressive
Bits/(Pixel*Frame) : 0.136
Stream size : 4.27 GiB (95%)
Default : Yes
Forced : No
Color range : Limited
Color primaries : BT.709
Transfer characteristics : BT.709
Matrix coefficients : BT.709

Audio
ID : 2
Format : AC-3
Format/Info : Audio Coding 3
Mode extension : CM (complete main)
Format settings, Endianness : Big
Codec ID : A_AC3
Duration : 1 h 28 min
Bit rate mode : Constant
Bit rate : 192 kb/s
Channel(s) : 2 channels
Channel positions : Front: L R
Sampling rate : 48.0 kHz
Frame rate : 31.250 FPS (1536 spf)
Compression mode : Lossy
Stream size : 122 MiB (3%)
Default : Yes
Forced : No
pb.wtf



Скачать Доктор Улитка через торрент http://interhit.org/img/2018-05/27/95e0rpzgd7ieqwngygkarjw3v.gif Скачать фильм Доктор Улитка через торрент бесплантно в хорошем качестве Описание: Доктора Киру Улитину за нерешительность называют Улиткой. Но Улитка она только в личной жизни - верит всему, что говорит ей ... 10 10 2
Info! Золотая раздача, скачанное не засчитывается.
Торрент: Зарегистрирован [2018-09-02 15:51] · скачан: 26 раз
Статус: √ проверено
Размер: 9 GB
Как cкачать? Как скачать Доктор Улитка через торрент | qTorrent

28-11-2019 20:33  

Отключить всю рекламу на сайте

    Дорогой пользователь! Огромная просьба, поблагодарите релизера, оцените раздачу и оставьте свои комментарий, если Вы скачали Доктор Улитка через торрент бесплатно! Внесите свою лепту в развитие PiratBit!
    Комментировать посты могут только пользователи прошедшие не сложную регистрацию
    Показать сообщения:    

    Доктор Улитка через торрент
    Скачать бесплатно Доктор Улитка
    Доктор Улитка скачать торрент
    Доктор Улитка смотреть онлайн
    Cкачать фильм Доктор Улитка бесплатно
    Доктор Улитка скачать торрент в хорошем качестве
    Доктор Улитка смотреть онлайн бесплатно в хорошем качестве


    Вы не можете начинать темы
    Вы не можете отвечать на сообщения
    Вы не можете редактировать свои сообщения
    Вы не можете удалять свои сообщения
    Вы не можете голосовать в опросах
    Вы не можете прикреплять файлы к сообщениям
    Вы можете скачивать файлы