Ссылка на приватное зеркало нашего сайта всего за 1$. Внимание количество ограничено!!!

2 сезон

iTunes

1 сезон

1

iTunes

iTunes

iTunes

1 сезон

RePack

30

ИГРА 18+

pack

ВАЖНО

!!Акция!!

Alien_RageХит недели

RePack

MK11
pack

Забери бонус

RePack

jed

!!Акция!!

Alien_Rage

RePack

fifa19

RePack

Assassins Creed: Odyssey

RePack

NEED FOR SPEED™ PAYBACK

4 сезон

9 сезон

Бесстыжие 9 сезон

Все сериалы

все сериалы на PB.wtf

RePack

FAR CRY 5
  

Несладкая месть / Серии: 1-4 из 4 (Валерий Ибрагимов) [2018, Мелодрама, SATRip] pb.wtf

Несладкая месть через торрент pb.wtf

Размер: 2.9 GB | Добавлен: 2 года 1 мес. назад | Торрент скачан:52 раза
Скачать  

03-09-2018 02:18 Несладкая месть Скачать торрент  

Несладкая местьГод выпуска: 2018
Страна: Россия
Жанр: Мелодрама
Продолжительность: ~ 00:50:00
Субтитры: отсутствуют

Режиссер: Валерий Ибрагимов



В ролях:

Марина Митрофанова, Александр Константинов, Марина Куделинская, Борис Каморзин, Анжелика Вольская, Наталия Цыганенко, Юлия Ромашина, Алла Подчуфарова, Игорь Рубашкин

Описание:

Катя (Марина Митрофанова) – обычная студентка, влюбилась впервые в жизни. Она встретила своего принца – Виктора (Александр Константинов) – красивого, богатого и любящего молодого человека. О таком мужчине простая девушка, как она, могла только мечтать. Но Катя не подозревает, что Виктор появился в ее жизни не случайно. На самом деле он – одержимый местью пасынок ее отца. Отец Кати – Михаил (Борис Каморзин) много лет скрывал, что живет на две семьи. Узнав правду о муже-обманщике и аферисте, мать Виктора покончила с собой. В итоге, Михаилу, виновному в смерти жены, досталась половина ее имущества. Виктор, ведомый ненавистью и горькой обидой на отчима, которого любил как родного отца, решил отомстить: ударить его по самому больному месту – по любимой дочке Кате. А заодно и вернуть деньги семьи, женившись на наследнице. Виктору легко удается воплотить свой план - жениться на наивной и без памяти в влюбленной в него Кате. Вот только месть оказывается не такой сладкой…

Качество: SATRip
Формат: AVI

Видео: XviD, 1800 Кбит/с, 720x400
Аудио: МР3, 2 ch, 128 Кбит/с
скриншот  скриншот  скриншот  скриншот  скриншот  

Общее
Полное имя : D:\Nesladkaya.mest.SATRip\Nesladkaya.mest.01.SATRip.avi
Формат : AVI
Формат/Информация : Audio Video Interleave
Размер файла : 703 Мбайт
Продолжительность : 50 м. 44 с.
Общий поток : 1938 Кбит/сек
Программа кодирования : VirtualDubMod 1.5.10.3 | www.virtualdub-fr.org || (build 2550/release)
Библиотека кодирования : VirtualDubMod build 2550/release

Видео
Идентификатор : 0
Формат : MPEG-4 Visual
Профиль формата : Advanced Simple@L5
Параметр BVOP формата : 2
Параметр QPel формата : Нет
Параметр GMC формата : Без точки перехода
Параметр матрицы формата : Default (H.263)
Идентификатор кодека : XVID
Идентификатор кодека/Подсказка : XviD
Продолжительность : 50 м. 44 с.
Битрейт : 1800 Кбит/сек
Ширина : 720 пикселей
Высота : 400 пикселей
Соотношение сторон : 16:9
Частота кадров : 25,000 кадров/сек
Цветовое пространство : YUV
Субдискретизация насыщенности : 4:2:0
Битовая глубина : 8 бит
Тип развёртки : Прогрессивная
Метод сжатия : С потерями
Бит/(Пиксели*Кадры) : 0.250
Размер потока : 653 Мбайт (93%)
Библиотека кодирования : XviD 1.2.1 (UTC 2008-12-04)

Аудио
Идентификатор : 1
Формат : MPEG Audio
Версия формата : Version 1
Профиль формата : Layer 3
Режим : Joint stereo
Расширение режима : MS Stereo
Идентификатор кодека : 55
Идентификатор кодека/Подсказка : MP3
Продолжительность : 50 м. 44 с.
Вид битрейта : Постоянный
Битрейт : 128 Кбит/сек
Каналы : 2 канала
Частота : 48,0 КГц
Метод сжатия : С потерями
Размер потока : 46,5 Мбайт (7%)
Выравнивание : Соединение по промежуткам
Продолжительность промежутка : 40 мс. (1,00 видеокадр)
Время предзагрузки промежутка : 504 мс.
Библиотека кодирования : LAME3.99r
Настройки программы : -m j -V 4 -q 9 -lowpass 17 -b 128

pb.wtf



Скачать Несладкая месть через торрент http://img11.lostpic.net/2018/09/02/86c2eb8ccb232e54cef2ee32a3d289ff.jpg Скачать фильм Несладкая месть через торрент бесплантно в хорошем качестве Описание: Катя (Марина Митрофанова) – обычная студентка, влюбилась впервые в жизни. Она встретила своего принца – Виктора (Александр ... 10 10 2
Торрент: Зарегистрирован [2018-09-03 02:18] · скачан: 52 раз
Статус: √ проверено
Размер: 2.9 GB
Как cкачать? Как скачать Несладкая месть через торрент | qTorrent

% Раздел Тема Автор DL S | L
Наши сериалы [ 2.78 GB ] Несладкая месть / Серии: 1-4 из 4 [2018 SATRip-AVC] aleksan55 Скачать
1 | 0

28-11-2019 20:33  

Отключить всю рекламу на сайте

    Дорогой пользователь! Огромная просьба, поблагодарите релизера, оцените раздачу и оставьте свои комментарий, если Вы скачали Несладкая месть через торрент бесплатно! Внесите свою лепту в развитие PiratBit!
    Комментировать посты могут только пользователи прошедшие не сложную регистрацию
    Показать сообщения:    

    Несладкая месть через торрент
    Скачать бесплатно Несладкая месть
    Несладкая месть скачать торрент
    Несладкая месть смотреть онлайн
    Cкачать фильм Несладкая месть бесплатно
    Несладкая месть скачать торрент в хорошем качестве
    Несладкая месть смотреть онлайн бесплатно в хорошем качестве


    Вы не можете начинать темы
    Вы не можете отвечать на сообщения
    Вы не можете редактировать свои сообщения
    Вы не можете удалять свои сообщения
    Вы не можете голосовать в опросах
    Вы не можете прикреплять файлы к сообщениям
    Вы можете скачивать файлы