2 сезон

iTunes

1 сезон

1

iTunes

iTunes

iTunes

1 сезон

RePack

30

ИГРА 18+

pack

ВАЖНО

!!Акция!!

Alien_RageХит недели

RePack

MK11
pack

Забери бонус

RePack

jed

!!Акция!!

Alien_Rage

RePack

fifa19

RePack

Assassins Creed: Odyssey

RePack

NEED FOR SPEED™ PAYBACK

4 сезон

9 сезон

Бесстыжие 9 сезон

Все сериалы

все сериалы на PB.wtf

RePack

FAR CRY 5
  

Стрекоза / Серии: 1-4 из 4 (Валерий Ибрагимов) [2018, мелодрама, детектив, WEBRip] pb.wtf

Стрекоза через торрент pb.wtf

Размер: 2.74 GB | Добавлен: 2 года 1 мес. назад | Торрент скачан:83 раза
Скачать  

03-09-2018 02:39 Стрекоза Скачать торрент  

СтрекозаГод выпуска: 2018
Страна: Украина
Жанр: мелодрама, детектив
Продолжительность: ~ 00:51:00
Перевод: Не требуется
Субтитры: отсутствуют

Режиссер: Валерий Ибрагимов

В ролях:

Лесь Заднепровский, Вера Шпак, Тимофей Каратаев, Валерий Баринов, Денис Мартынов, Евгений Ефремов, Николай Боклан, Мария Климова

Описание:

Ирина - аферистка, детдомовка, давно запретившая себе мечтать о семье, привыкшая полагаться только на себя. За способность заболтать кого угодно получившая прозвище Стрекоза. Капитан полиции Игорь - ее полная противоположность. Правильный, порядочный, педантичный. Давно мечтает посадить Стрекозу, которая всегда оставляет его с носом. Эта парочка на дух не выносит друг друга. И ни за что не признается даже самим себе, что их тянет друг к другу. Игорю все же удается поймать Стрекозу, но она оказывается единственной свидетельницей по громкому делу против криминального авторитета Румынцева. Полиция предлагает Ирине сделку: ее показания в обмен на безопасность и "амнистию" всех ее прошлых грешков. Загнанная в угол Стрекоза соглашается, не представляя, что до суда им с Игорем придется жить в другом городе под видом любящих супругов. И без того непростая ситуация усложняется тем, что вечно ссорящуюся парочку селят в коммунальную квартиру, где живет весьма эксцентричный старик-писатель и двое детей, чья мать куда-то исчезла. Так под одной крышей оказываются сразу пять одиночеств, которые по стечению обстоятельств умудрятся стать настоящей семьей...

Качество: WEBRip
Формат: AVI

Видео: XviD, ~ 1696 Кбит/с, 720x400
Аудио: AC3, 2 ch, 192 Кбит/с
скриншот  скриншот  скриншот  скриншот  скриншот  

Общее
Полное имя : D:\Стрекоза.2018.WEBRip.by.Nicodem.Files-x\01.Стрекоза.2018.WEBRip.by.Nicodem.Files-x.avi
Формат : AVI
Формат/Информация : Audio Video Interleave
Размер файла : 701 Мбайт
Продолжительность : 51 м. 37 с.
Общий поток : 1898 Кбит/сек
Программа кодирования : VirtualDubMod 1.5.10.3 | www.virtualdub-fr.org || (build 2550/release)
Библиотека кодирования : VirtualDubMod build 2550/release

Видео
Идентификатор : 0
Формат : MPEG-4 Visual
Профиль формата : Advanced Simple@L5
Параметр BVOP формата : 1
Параметр QPel формата : Да
Параметр GMC формата : Без точки перехода
Параметр матрицы формата : Выборочная
Идентификатор кодека : XVID
Идентификатор кодека/Подсказка : XviD
Продолжительность : 51 м. 37 с.
Битрейт : 1696 Кбит/сек
Ширина : 720 пикселей
Высота : 400 пикселей
Соотношение сторон : 16:9
Частота кадров : 25,000 кадров/сек
Цветовое пространство : YUV
Субдискретизация насыщенности : 4:2:0
Битовая глубина : 8 бит
Тип развёртки : Прогрессивная
Метод сжатия : С потерями
Бит/(Пиксели*Кадры) : 0.236
Размер потока : 626 Мбайт (89%)
Библиотека кодирования : XviD 73

Аудио
Идентификатор : 1
Формат : AC-3
Формат/Информация : Audio Coding 3
Расширение режима : CM (complete main)
Параметр Endianness формата : Big
Идентификатор кодека : 2000
Продолжительность : 51 м. 37 с.
Вид битрейта : Постоянный
Битрейт : 192 Кбит/сек
Каналы : 2 канала
Расположение каналов : Front: L R
Частота : 48,0 КГц
Частота кадров : 31,250 кадров/сек (1536 spf)
Метод сжатия : С потерями
Размер потока : 70,9 Мбайт (10%)
Выравнивание : Разделение по промежуткам
Продолжительность промежутка : 40 мс. (1,00 видеокадр)
Время предзагрузки промежутка : 500 мс.

pb.wtf



Скачать Стрекоза через торрент https://i100.fastpic.ru/big/2018/0902/43/b2eeafceb60196e4c59cadd2630a5343.jpg Скачать фильм Стрекоза через торрент бесплантно в хорошем качестве Описание: Ирина - аферистка, детдомовка, давно запретившая себе мечтать о семье, привыкшая полагаться только на себя. За способность ... 10 10 4
Торрент: Зарегистрирован [2018-09-03 02:39] · скачан: 83 раз
Статус: √ проверено
Размер: 2.74 GB
Как cкачать? Как скачать Стрекоза через торрент | qTorrent

% Раздел Тема Автор DL S | L
Наши сериалы [ 2.71 GB ] Стрекоза / Серии: 1-4 из 4 [2018 WEB-DLRip-AVC] bober100 Скачать
1 | 0
Наши сериалы [ 3.44 GB ] Тень стрекозы / Серии 1-4 из 4 [2015 WEB-DL 1080p] bober100 Скачать
1 | 0
Наши сериалы [ 2.34 GB ] Тень стрекозы / Серии 1-4 из 4 [2015 WEB-DLRip] bober100 Скачать
1 | 0

28-11-2019 20:33  

Отключить всю рекламу на сайте

    Дорогой пользователь! Огромная просьба, поблагодарите релизера, оцените раздачу и оставьте свои комментарий, если Вы скачали Стрекоза через торрент бесплатно! Внесите свою лепту в развитие PiratBit!
    Комментировать посты могут только пользователи прошедшие не сложную регистрацию
    Показать сообщения:    

    Стрекоза через торрент
    Скачать бесплатно Стрекоза
    Стрекоза скачать торрент
    Стрекоза смотреть онлайн
    Cкачать фильм Стрекоза бесплатно
    Стрекоза скачать торрент в хорошем качестве
    Стрекоза смотреть онлайн бесплатно в хорошем качестве


    Вы не можете начинать темы
    Вы не можете отвечать на сообщения
    Вы не можете редактировать свои сообщения
    Вы не можете удалять свои сообщения
    Вы не можете голосовать в опросах
    Вы не можете прикреплять файлы к сообщениям
    Вы можете скачивать файлы