2 сезон

iTunes

MVO

1

2 сезон

iTunes

iTunes

1 сезон

RePack

30

Новинка

ВАЖНО

ИГРА 18+

pack

RePack

MK11
pack

Легкие деньги

RePack

jed

RePack

fifa19

RePack

RDR2

RePack

NEED FOR SPEED™ PAYBACK

4 сезон

9 сезон

Бесстыжие 9 сезон

Все сериалы

все сериалы на PB.wtf

RePack

FAR CRY 5

Anonymous, добрый вечер, мы не успеваем собрать деньги на оплату серверов за декабрь и январь, помогите нам пожалуйста в это трудное время. В качестве благодарности мы отключим Вам всю рекламу на сайте (укажите свой ник в строку Ваше имя)!

×
  
Magnet ссылка

Чаппакуиддик / Chappaquiddick (Джон Кёрран) [2017, Триллер, драма, история, BDRip] MVO [Jaskier] pb.wtf

Чаппакуиддик через торрент pb.wtf

Размер: 1.46 GB | Добавлен: 2 года 4 мес. назад | Торрент скачан:118 раз
Скачать  

03-09-2018 03:20 Чаппакуиддик Скачать торрент  

Чаппакуиддик / Chappaquiddick
Страна: Швеция, США
Жанр: Триллер, драма, история
Год выпуска: 2017
Продолжительность: 01:46:43
Перевод:Профессиональный (многоголосый) | Jaskier
Субтитры: отсутствуют

Режиссер: Джон Кёрран / John Curran

rating скриншот  

В ролях:

Джейсон Кларк, Эд Хелмс, Джим Гэффиган, Кейт Мара, Брюс Дерн, Джон Фиоре, Джиллиан Маринер Гордон, Оливия Тирлби, Кэти Хенох, Лекси Рот

Описание:

Фильм, основанный на реальных событиях, расскажет об инциденте, произошедшем летом 1969 года в окрестностях острова Чаппакуиддик. В центре сюжета оказывается сенатор Эдвард Кеннеди, возвращавшийся с ночной прогулки в компании Мэри Джо – молодой девушкой, которая в прошлом принимала участие в предвыборной компании его старшего брата. Будучи за рулем, Эдвард не справился с управлением, в результате чего его автомобиль оказался в воде. Кеннеди-младшему удалось спастись из тонущей машины, в то время как девушка осталась внутри и погибла. Жизнь и политическая карьера Теда Кеннеди оказываются под угрозой.

Качество: BDRip
Формат: AVI

Видео: XviD, 1502 Кбит/с, 720x304
Аудио: Русский (AC3, 6 ch, 448 Кбит/с)
скриншот  скриншот  скриншот  

Общее
Полное имя : D:ЯскъерChappaquiddick.2017.BDRip.Jaskier.avi
Формат : AVI
Формат/Информация : Audio Video Interleave
Размер файла : 1,46 Гбайт
Продолжительность : 1 ч. 46 м.
Общий поток : 1959 Кбит/сек
Программа кодирования : VirtualDubMod 1.5.10.3 | www.virtualdub-fr.org || (build 2550/release)
Библиотека кодирования : VirtualDubMod build 2550/release

Видео
Идентификатор : 0
Формат : MPEG-4 Visual
Профиль формата : Advanced Simple@L5
Настройки формата : BVOP1 / Custom Matrix
Параметр BVOP формата : 1
Параметр QPel формата : Нет
Параметр GMC формата : Без точки перехода
Параметр матрицы формата : Выборочная
Идентификатор кодека : XVID
Идентификатор кодека/Подсказка : XviD
Продолжительность : 1 ч. 46 м.
Битрейт : 1502 Кбит/сек
Ширина : 720 пикселей
Высота : 304 пикселя
Соотношение сторон : 2,35:1
Частота кадров : 23,976 (24000/1001) кадра/сек
Цветовое пространство : YUV
Субдискретизация насыщенности : 4:2:0
Битовая глубина : 8 бит
Тип развёртки : Прогрессивная
Метод сжатия : С потерями
Бит/(Пиксели*Кадры) : 0.286
Размер потока : 1,12 Гбайт (77%)
Библиотека кодирования : XviD 73

Аудио
Идентификатор : 1
Формат : AC-3
Формат/Информация : Audio Coding 3
Идентификатор кодека : 2000
Продолжительность : 1 ч. 46 м.
Вид битрейта : Постоянный
Битрейт : 448 Кбит/сек
Каналы : 6 каналов
Расположение каналов : Front: L C R, Side: L R, LFE
Частота : 48,0 КГц
Частота кадров : 31,250 кадров/сек (1536 SPF)
Битовая глубина : 16 бит
Метод сжатия : С потерями
Размер потока : 342 Мбайт (23%)
Выравнивание : Разделение по промежуткам
Продолжительность промежутка : 42 мс. (1,00 видеокадр)
Время предзагрузки промежутка : 500 мс.

pb.wtf



Скачать Чаппакуиддик через торрент https://img11.lostpic.net/2018/07/30/3ca91ced4f93c8df74a4bc813e6c81f5.jpg Скачать фильм Чаппакуиддик через торрент бесплантно в хорошем качестве Описание: Фильм, основанный на реальных событиях, расскажет об инциденте, произошедшем летом 1969 года в окрестностях острова Чаппакуиддик. ... 10 10 4
Торрент: Зарегистрирован [2018-09-03 03:20] · скачан: 118 раз
Статус: √ проверено
Размер: 1.46 GB
Как cкачать? Как скачать Чаппакуиддик через торрент | UTorrent

% Раздел Тема Автор DL S | L
Фильмы [HD 720p, 1080p] (Хороший звук DUB, MVO) [ 4.39 GB ] Чаппакуиддик / Chappaquiddick [2017 история BDRip 720p] MVO [Jaskier] bober100 Скачать
1 | 0
T Фильмы [HD 720p, 1080p] (Хороший звук DUB, MVO) [ 13.19 GB ] Чаппакуиддик / Chappaquiddick [2017 история BDRip 1080p] MVO [HDrezka Studio] bober100 Скачать
1 | 0
T Фильмы (Blu-ray, BD-Remux, HDDVD) [ 28.19 GB ] Чаппакуиддик / Chappaquiddick [2017 история BD Remux 1080p] MVO [HDrezka Studio] bober100 Скачать
1 | 0
T Фильмы 2017 [DVDrip, WEB-DLRip, HDrip] (DUB, MVO) [ 1.2 GB ] Чаппакуиддик / Chappaquiddick [2017 история BDRip-AVC] MVO [HDrezka Studio] bober100 Скачать
1 | 0
T Фильмы без перевода [ 1.46 GB ] Чаппакуиддик / Chappaquiddick [2017 история BDRip] [Sub Rus] killermax2013 Скачать
1 | 0

28-11-2019 20:33  

Отключить всю рекламу на сайте

    Дорогой пользователь! Огромная просьба, поблагодарите релизера, оцените раздачу и оставьте свои комментарий, если Вы скачали Чаппакуиддик через торрент бесплатно! Внесите свою лепту в развитие PiratBit!
    Комментировать посты могут только пользователи прошедшие не сложную регистрацию
    Показать сообщения:    

    Чаппакуиддик через торрент
    Скачать бесплатно Чаппакуиддик
    Чаппакуиддик скачать торрент
    Чаппакуиддик смотреть онлайн
    Cкачать фильм Чаппакуиддик бесплатно
    Чаппакуиддик скачать торрент в хорошем качестве
    Чаппакуиддик смотреть онлайн бесплатно в хорошем качестве


    Вы не можете начинать темы
    Вы не можете отвечать на сообщения
    Вы не можете редактировать свои сообщения
    Вы не можете удалять свои сообщения
    Вы не можете голосовать в опросах
    Вы не можете прикреплять файлы к сообщениям
    Вы можете скачивать файлы