Ссылка на приватное зеркало всего за 1$. Внимание количество ограничено!!!

iTunes

1+1

iTunes

мы

WEB-DL

1

iTunes

Чернобыль

iTunes

Ральф против интернета

Лицензия

ПШазам

Лицензия

Оно 2

Лицензия

30
pack

Вам бонус

ВАЖНО

!!Акция!!

Alien_RageХит недели

RePack

Resident Evil 21

ИГРА 18+

pack

RePack

jed

!!Акция!!

Alien_Rage

RePack

fifa19

RePack

Assassins Creed: Odyssey

RePack

NEED FOR SPEED™ PAYBACK

3 сезон

9 сезон

Бесстыжие 9 сезон

Все сериалы

все сериалы на PB.wtf

RePack

FAR CRY 5
Ребята, катастрофически не хватает 1900р. для оплаты серверов за Октябрь (всвязи с блокировками трафик упал в 3 раза), 1-2р., выручайте.
  

Шпионская игра / The Catcher Was a Spy (Бен Луин) [2018, триллер, приключения, WEB-DLRip-AVC] MVO [HDRezka Studio] +DUB [iTunes] pb.wtf

Шпионская игра через торрент pb.wtf

Раздают: 4 [ 0 KB/s ]
Размер: 1.71 GB | Добавлен: 1 год 3 мес. назад | Торрент скачан:304 раза
Скачать  

03-09-2018 06:07 Шпионская игра Скачать торрент  

Шпионская игра / The Catcher Was a Spy«Based on the True Story of Moe Berg»
Год выпуска: 2018
Страна: США
Жанр: триллер, приключения
Продолжительность: 01:34:41
Перевод:

#1. Дублированный | iTunes
#2. Профессиональный (многоголосый, закадровый) | HDRezka Studio

Субтитры: Английские (полные)

Режиссер: Бен Луин

rating

В ролях:

Пол Радд, Конни Нильсен, Марк Стронг, Сиенна Миллер, Гай Пирс, Пол Джаматти, Джефф Дэниелс, Хироюки Санада, Шей Уигэм, Том Уилкинсон

Описание:

Разгар Второй мировой войны. Жизнь Мо Берга, интеллектуала, полиглота, выпускника престижного университета и известного спортсмена-бейсболиста, круто меняется, когда ему предлагают сотрудничество с Управлением стратегических служб (предшественник ЦРУ). Благодаря своим разнообразным талантам, а также умению хранить секреты, Мо быстро осваивается в роли шпиона. От выполнения его первого задания зависит - ни много ни мало - судьба всего мира. Берг должен отправиться в фашистскую Германию, чтобы выкрасть или уничтожить Вернера Гейзенберга, одного из ученых - разработчиков атомной бомбы...

Качество: WEB-DLRip-AVC
Формат: MKV

Видео: 1024x552 (1.85:1), 23,976 fps, x264 ~1 630 kbps avg, 0.120 bit/pixel
Аудио#1: 48 kHz, AC3 Dolby Digital, 3/2 (L,C,R,l,r) + LFE ch, ~384.00 kbps avg | RUS (iTunes)
Аудио#2: 48 kHz, AC3 Dolby Digital, 2 (L,R) ch, ~192.00 kbps avg | RUS (HDRezka Studio)
Аудио#3: 48 kHz, AC3 Dolby Digital, 3/2 (L,C,R,l,r) + LFE ch, ~384.00 kbps avg | ENG
скриншот  скриншот  скриншот  скриншот  

Общее
Уникальный идентификатор : 71416032806416197262753137644901424562 (0x35BA3A449766785BBFECF0B450CADDB2)
Полное имя : F:OlLanDGroupThe.Catcher.Was.a.Spy.2018.WEB-DLRip(AVC).OlLanDGroup.mkv
Формат : Matroska
Версия формата : Version 4 / Version 2
Размер файла : 1,71 Гбайт
Продолжительность : 1 ч. 34 м.
Общий поток : 2592 Кбит/сек
Название фильма : The.Catcher.Was.a.Spy.2018 #TorpedoUK#
Дата кодирования : UTC 2018-09-03 04:26:53
Программа кодирования : mkvmerge v25.0.0 ('Prog Noir') 64-bit
Библиотека кодирования : libebml v1.3.6 + libmatroska v1.4.9
Обложка : Yes
Attachments : small_cover.jpg / small_cover_land.jpg / cover.jpg / cover_land.jpg

Видео
Идентификатор : 1
Формат : AVC
Формат/Информация : Advanced Video Codec
Профиль формата : High@L4.1
Параметр CABAC формата : Да
Параметр ReFrames формата : 10 кадров
Идентификатор кодека : V_MPEG4/ISO/AVC
Продолжительность : 1 ч. 34 м.
Битрейт : 1630 Кбит/сек
Ширина : 1024 пикселя
Высота : 552 пикселя
Соотношение сторон : 1,85:1
Режим частоты кадров : Постоянный
Частота кадров : 23,976 (24000/1001) кадра/сек
Цветовое пространство : YUV
Субдискретизация насыщенности : 4:2:0
Битовая глубина : 8 бит
Тип развёртки : Прогрессивная
Бит/(Пиксели*Кадры) : 0.120
Размер потока : 1,08 Гбайт (63%)
Библиотека кодирования : x264 core 146 r2538 121396c
Настройки программы : cabac=1 / ref=10 / deblock=1:-2:-3 / analyse=0x3:0x113 / me=umh / subme=11 / psy=1 / psy_rd=0.95:0.07 / mixed_ref=1 / me_range=48 / chroma_me=1 / trellis=2 / 8x8dct=1 / cqm=0 / deadzone=21,11 / fast_pskip=1 / chroma_qp_offset=-3 / threads=6 / lookahead_threads=1 / sliced_threads=0 / nr=0 / decimate=1 / interlaced=0 / bluray_compat=0 / constrained_intra=0 / bframes=10 / b_pyramid=2 / b_adapt=2 / b_bias=0 / direct=3 / weightb=1 / open_gop=0 / weightp=2 / keyint=240 / keyint_min=23 / scenecut=40 / intra_refresh=0 / rc_lookahead=40 / rc=2pass / mbtree=1 / bitrate=1630 / ratetol=1.0 / qcomp=0.60 / qpmin=0 / qpmax=69 / qpstep=4 / cplxblur=20.0 / qblur=0.5 / vbv_maxrate=50000 / vbv_bufsize=62500 / nal_hrd=none / filler=0 / ip_ratio=1.40 / aq=1:1.00
Default : Да
Forced : Нет

Аудио #1
Идентификатор : 2
Формат : AC-3
Формат/Информация : Audio Coding 3
Расширение режима : CM (complete main)
Параметр Endianness формата : Big
Идентификатор кодека : A_AC3
Продолжительность : 1 ч. 34 м.
Вид битрейта : Постоянный
Битрейт : 384 Кбит/сек
Каналы : 6 каналов
Расположение каналов : Front: L C R, Side: L R, LFE
Частота : 48,0 КГц
Частота кадров : 31,250 кадров/сек (1536 spf)
Битовая глубина : 16 бит
Метод сжатия : С потерями
Размер потока : 260 Мбайт (15%)
Заголовок : DUB [iTunes]
Язык : Russian
Default : Да
Forced : Нет

Аудио #2
Идентификатор : 3
Формат : AC-3
Формат/Информация : Audio Coding 3
Расширение режима : CM (complete main)
Параметр Endianness формата : Big
Идентификатор кодека : A_AC3
Продолжительность : 1 ч. 34 м.
Вид битрейта : Постоянный
Битрейт : 192 Кбит/сек
Каналы : 2 канала
Расположение каналов : Front: L R
Частота : 48,0 КГц
Частота кадров : 31,250 кадров/сек (1536 spf)
Битовая глубина : 16 бит
Метод сжатия : С потерями
Размер потока : 130 Мбайт (7%)
Заголовок : MVO [HDRezka Studio]
Язык : Russian
Default : Нет
Forced : Нет

Аудио #3
Идентификатор : 4
Формат : AC-3
Формат/Информация : Audio Coding 3
Расширение режима : CM (complete main)
Параметр Endianness формата : Big
Идентификатор кодека : A_AC3
Продолжительность : 1 ч. 34 м.
Вид битрейта : Постоянный
Битрейт : 384 Кбит/сек
Каналы : 6 каналов
Расположение каналов : Front: L C R, Side: L R, LFE
Частота : 48,0 КГц
Частота кадров : 31,250 кадров/сек (1536 spf)
Битовая глубина : 16 бит
Метод сжатия : С потерями
Размер потока : 260 Мбайт (15%)
Заголовок : [ORIGINAL]
Язык : English
Default : Нет
Forced : Нет

Текст
Идентификатор : 5
Формат : UTF-8
Идентификатор кодека : S_TEXT/UTF8
Идентификатор кодека/Информация : UTF-8 Plain Text
Продолжительность : 1 ч. 23 м.
Битрейт : 43 бит/сек
Count of elements : 935
Размер потока : 26,9 Кбайт (0%)
Заголовок : Full
Язык : English
Default : Нет
Forced : Нет

Меню
00:00:00.000 : en:1
00:04:09.000 : en:2
00:10:40.000 : en:3
00:16:21.000 : en:4
00:23:50.000 : en:5
00:31:16.000 : en:6
00:38:46.000 : en:7
00:47:58.000 : en:8
00:52:58.000 : en:9
00:59:51.000 : en:10
01:05:36.000 : en:11
01:14:57.000 : en:12
01:21:13.000 : en:13
01:28:27.000 : en:14

pb.wtf



Скачать Шпионская игра через торрент http://img11.lostpic.net/2018/07/01/0dbdab5b66b11fb4ca6f618ffd1f2bdd.jpg Скачать фильм Шпионская игра через торрент бесплантно в хорошем качестве Описание: Разгар Второй мировой войны. Жизнь Мо Берга, интеллектуала, полиглота, выпускника престижного университета и известного ... 10 10 3
Торрент: Зарегистрирован [2018-09-03 06:07] · скачан: 304 раз
Статус: √ проверено
Размер: 1.71 GB
Как cкачать? Как скачать Шпионская игра через торрент | qTorrent

% Раздел Тема Автор DL S | L
Фильмы 2018 [DVDrip, WEB-DLRip, HDrip] (DUB, MVO) [ 1.42 GB ] Шпионская игра / The Catcher Was a Spy [2018 BDRip] - Twi7ter Скачать
20 | 0
Фильмы 2018 [DVDrip, WEB-DLRip, HDrip] (DUB, MVO) [ 1.46 GB ] Шпионская игра / The Catcher Was a Spy [2018 BDRip] bober100 Скачать
8 | 0
Фильмы [HD 720p, 1080p] (Хороший звук DUB, MVO) [ 8.4 GB ] Шпионская игра / The Catcher Was a Spy [2018 BDRip 1080p] +MVO [HDrezka Studio] bober100 Скачать
2 | 0
Фильмы (WEB-DL 720p, 1080p) [ 3.18 GB ] Шпионская игра / The Catcher Was a Spy [2018 WEB-DL 720p] bober100 Скачать
6 | 0
Фильмы (WEB-DL 720p, 1080p) [ 3.73 GB ] Шпионская игра / The Catcher Was a Spy [2018 WEB-DL 1080p] bober100 Скачать
1 | 0

28-11-2019 20:33  

Отключить всю рекламу на сайте

03-09-2018 11:23 Шпионская игра Скачать торрент  

Шо, опять амеры спасают мир?pb.wtf



    Дорогой пользователь! Огромная просьба, поблагодарите релизера, оцените раздачу и оставьте свои комментарий, если Вы скачали Шпионская игра через торрент бесплатно! Внесите свою лепту в развитие PiratBit!
    Комментировать посты могут только пользователи прошедшие не сложную регистрацию
    Показать сообщения:    

    Шпионская игра через торрент
    Скачать бесплатно Шпионская игра
    Шпионская игра скачать торрент
    Шпионская игра смотреть онлайн
    Cкачать фильм Шпионская игра бесплатно
    Шпионская игра скачать торрент в хорошем качестве
    Шпионская игра смотреть онлайн бесплатно в хорошем качестве


    Вы не можете начинать темы
    Вы не можете отвечать на сообщения
    Вы не можете редактировать свои сообщения
    Вы не можете удалять свои сообщения
    Вы не можете голосовать в опросах
    Вы не можете прикреплять файлы к сообщениям
    Вы можете скачивать файлы