новый адрес
Ссылка на приватное зеркало всего за 1$. Внимание количество ограничено!!!

iTunes

1+1

iTunes

мы

WEB-DL

1

iTunes

Чернобыль

iTunes

Ральф против интернета

Лицензия

ПШазам

Лицензия

Оно 2

Лицензия

30
pack

Вам бонус

ВАЖНО

!!Акция!!

Alien_RageХит недели

RePack

Resident Evil 21

ИГРА 18+

pack

RePack

jed

!!Акция!!

Alien_Rage

RePack

fifa19

RePack

Assassins Creed: Odyssey

RePack

NEED FOR SPEED™ PAYBACK

3 сезон

9 сезон

Бесстыжие 9 сезон

Все сериалы

все сериалы на PB.wtf

RePack

FAR CRY 5
Ребята, катастрофически не хватает 1900р. для оплаты серверов за Октябрь (всвязи с блокировками трафик упал в 3 раза), 1-2р., выручайте.
  

Шпионская игра / The Catcher Was a Spy (Бен Луин) [2018, триллер, приключения, WEB-DL 1080p] DUB [iTunes] pb.wtf

Шпионская игра через торрент pb.wtf

Размер: 3.73 GB | Добавлен: 1 год 3 мес. назад | Торрент скачан:353 раза
Скачать  

03-09-2018 07:11 Шпионская игра Скачать торрент  

Шпионская игра / The Catcher Was a Spy
Год выпуска: 2018
Страна: США
Жанр: триллер, приключения
Продолжительность: 01:34:41
Перевод: Дублированный | iTunes
Субтитры: Английские (вшитые, отключаемые)

Режиссер: Бен Луин

rating

В ролях:

Пол Радд, Конни Нильсен, Марк Стронг, Сиенна Миллер, Гай Пирс, Пол Джаматти, Джефф Дэниелс, Хироюки Санада, Шей Уигэм, Том Уилкинсон

Описание:

Разгар Второй мировой войны. Жизнь Мо Берга, интеллектуала, полиглота, выпускника престижного университета и известного спортсмена-бейсболиста, круто меняется, когда ему предлагают сотрудничество с Управлением стратегических служб (предшественник ЦРУ). Благодаря своим разнообразным талантам, а также умению хранить секреты, Мо быстро осваивается в роли шпиона. От выполнения его первого задания зависит - ни много ни мало - судьба всего мира. Берг должен отправиться в фашистскую Германию, чтобы выкрасть или уничтожить Вернера Гейзенберга, одного из ученых - разработчиков атомной бомбы...

Качество: WEB-DL 1080p
Формат: MKV

Видео: AVC/H.264, 1920х1036, ~4762 Kbps, (1.85:1)
Аудио#1: AC3, 6 ch, 384 Kbps - Русский
Аудио#2: AC3, 6 ch, 384 Kbps - Английский
скриншот  скриншот  скриншот  скриншот  

Общее
Уникальный идентификатор : 172431731347430799944841500500566435289 (0x81B924BADF7AE9C6A1F93977EAB365D9)
Полное имя : /Users/The.Catcher.Was.a.Spy.2018.WEB-DL.1080p.mkv
Формат : Matroska
Версия формата : Version 4
Размер файла : 3,73 Гбайт
Продолжительность : 1 ч. 34 м.
Общий поток : 5643 Кбит/сек
Название фильма : TCWA_SPY_2018_WEB_DL_1080p_BLUEBIRD
Дата кодирования : UTC 2018-09-02 19:06:51
Программа кодирования : mkvmerge v6.9.1 ('Blue Panther') 32bit built on Apr 18 2014 18:15:44
Библиотека кодирования : libebml v1.3.0 + libmatroska v1.4.1

Видео
Идентификатор : 1
Формат : AVC
Формат/Информация : Advanced Video Codec
Профиль формата : High@L4
Настройки формата : CABAC / 4 Ref Frames
Параметр CABAC формата : Да
Параметр ReFrames формата : 4 кадра
Идентификатор кодека : V_MPEG4/ISO/AVC
Продолжительность : 1 ч. 34 м.
Битрейт : 4762 Кбит/сек
Ширина : 1920 пикселей
Высота : 1036 пикселей
Соотношение сторон : 1,85:1
Режим частоты кадров : Постоянный
Частота кадров : 23,976 (24000/1001) кадра/сек
Цветовое пространство : YUV
Субдискретизация насыщенности : 4:2:0
Битовая глубина : 8 бит
Тип развёртки : Прогрессивная
Бит/(Пиксели*Кадры) : 0.100
Размер потока : 3,15 Гбайт (84%)
Заголовок : TCWA_SPY_2018_WEB_DL_1080p_BLUEBIRD
Язык : English
Default : Да
Forced : Нет
Цветовой диапазон : Limited
Основные цвета : BT.709
Характеристики трансфера : BT.709
Коэффициенты матрицы : BT.709

Аудио #1
Идентификатор : 2
Формат : AC-3
Формат/Информация : Audio Coding 3
Коммерческое название : Dolby Digital
Идентификатор кодека : A_AC3
Продолжительность : 1 ч. 34 м.
Вид битрейта : Постоянный
Битрейт : 384 Кбит/сек
Каналы : 6 каналов
Channel layout : L R C LFE Ls Rs
Частота : 48,0 КГц
Частота кадров : 31,250 кадров/сек (1536 SPF)
Битовая глубина : 16 бит
Метод сжатия : С потерями
Задержка видео : -42 мс.
Размер потока : 260 Мбайт (7%)
Заголовок : [DUB] DD 5.1 @ 384 kbps (iTunes)
Язык : Russian
Service kind : Complete Main
Default : Да
Forced : Нет

Аудио #2
Идентификатор : 3
Формат : AC-3
Формат/Информация : Audio Coding 3
Коммерческое название : Dolby Digital
Идентификатор кодека : A_AC3
Продолжительность : 1 ч. 34 м.
Вид битрейта : Постоянный
Битрейт : 384 Кбит/сек
Каналы : 6 каналов
Channel layout : L R C LFE Ls Rs
Частота : 48,0 КГц
Частота кадров : 31,250 кадров/сек (1536 SPF)
Битовая глубина : 16 бит
Метод сжатия : С потерями
Задержка видео : -42 мс.
Размер потока : 260 Мбайт (7%)
Заголовок : [ORIGINAL] DD 5.1 @ 384 kbps (iTunes)
Язык : English
Service kind : Complete Main
Default : Нет
Forced : Нет

Текст
Идентификатор : 4
Формат : UTF-8
Идентификатор кодека : S_TEXT/UTF8
Идентификатор кодека/Информация : UTF-8 Plain Text
Заголовок : Full-length
Язык : English
Default : Нет
Forced : Нет

Меню
00:00:00.000 : en:1
00:04:09.000 : en:2
00:10:40.000 : en:3
00:16:21.000 : en:4
00:23:50.000 : en:5
00:31:16.000 : en:6
00:38:46.000 : en:7
00:47:58.000 : en:8
00:52:58.000 : en:9
00:59:51.000 : en:10
01:05:36.000 : en:11
01:14:57.000 : en:12
01:21:13.000 : en:13
01:28:27.000 : en:14

pb.wtf



Скачать Шпионская игра через торрент http://img11.lostpic.net/2018/07/01/0dbdab5b66b11fb4ca6f618ffd1f2bdd.jpg Скачать фильм Шпионская игра через торрент бесплантно в хорошем качестве Описание: Разгар Второй мировой войны. Жизнь Мо Берга, интеллектуала, полиглота, выпускника престижного университета и известного ... 9.6 10 12
Info! Золотая раздача, скачанное не засчитывается.
Торрент: Зарегистрирован [2018-09-03 07:11] · скачан: 353 раз
Статус: √ проверено
Размер: 3.73 GB
Как cкачать? Как скачать Шпионская игра через торрент | qTorrent

% Раздел Тема Автор DL S | L
Фильмы 2018 [DVDrip, WEB-DLRip, HDrip] (DUB, MVO) [ 1.42 GB ] Шпионская игра / The Catcher Was a Spy [2018 BDRip] - Twi7ter Скачать
11 | 0
Фильмы 2018 [DVDrip, WEB-DLRip, HDrip] (DUB, MVO) [ 1.46 GB ] Шпионская игра / The Catcher Was a Spy [2018 BDRip] bober100 Скачать
6 | 0
Фильмы [HD 720p, 1080p] (Хороший звук DUB, MVO) [ 8.4 GB ] Шпионская игра / The Catcher Was a Spy [2018 BDRip 1080p] +MVO [HDrezka Studio] bober100 Скачать
3 | 0
Фильмы (WEB-DL 720p, 1080p) [ 3.18 GB ] Шпионская игра / The Catcher Was a Spy [2018 WEB-DL 720p] bober100 Скачать
2 | 0
Фильмы 2018 [DVDrip, WEB-DLRip, HDrip] (DUB, MVO) [ 1.71 GB ] Шпионская игра / The Catcher Was a Spy [2018 WEB-DLRip-AVC] MVO [HDRezka Studio] + bober100 Скачать
2 | 0

28-11-2019 20:33  

Отключить всю рекламу на сайте


    Дорогой пользователь! Огромная просьба, поблагодарите релизера, оцените раздачу и оставьте свои комментарий, если Вы скачали Шпионская игра через торрент бесплатно! Внесите свою лепту в развитие PiratBit!
    Комментировать посты могут только пользователи прошедшие не сложную регистрацию
    Показать сообщения:    

    Шпионская игра через торрент
    Скачать бесплатно Шпионская игра
    Шпионская игра скачать торрент
    Шпионская игра смотреть онлайн
    Cкачать фильм Шпионская игра бесплатно
    Шпионская игра скачать торрент в хорошем качестве
    Шпионская игра смотреть онлайн бесплатно в хорошем качестве


    Вы не можете начинать темы
    Вы не можете отвечать на сообщения
    Вы не можете редактировать свои сообщения
    Вы не можете удалять свои сообщения
    Вы не можете голосовать в опросах
    Вы не можете прикреплять файлы к сообщениям
    Вы можете скачивать файлы