Ссылка на приватное зеркало нашего сайта всего за 1$. Внимание количество ограничено!!!

2 сезон

iTunes

1 сезон

1

2 сезон

2 сезон

iTunes

1 сезон

RePack

30

Новинка

ВАЖНО

ИГРА 18+

pack

RePack

MK11
pack

Забери бонус

RePack

jed

!!Акция!!

Alien_Rage

RePack

fifa19

RePack

Assassins Creed: Odyssey

RePack

NEED FOR SPEED™ PAYBACK

4 сезон

9 сезон

Бесстыжие 9 сезон

Все сериалы

все сериалы на PB.wtf

RePack

FAR CRY 5
  

Джек Райан / Jack Ryan / Сезон: 1 / Серии: 1-8 из 8 (Патрисия Ригген, Дэниэл Сакхайм, Карлтон Кьюз) [2018 , Боевик, триллер, драма, WEBRip 720р] MVO [GostFilm] pb.wtf

Джек Райан через торрент pb.wtf

Размер: 10.92 GB | Добавлен: 2 года 2 мес. назад | Торрент скачан:30 раз
Скачать  

03-09-2018 07:30 Джек Райан Скачать торрент  

Джек Райан / Jack Ryan
Год выпуска: 2018
Страна: США
Жанр: Боевик, триллер, драма
Продолжительность: ~ 00:55:00
Перевод: Любительский (многоголосый) |
Субтитры: Английские и др.

Режиссер: Патрисия Ригген, Дэниэл Сакхайм, Карлтон Кьюз

rating

В ролях:

Джон Красински, Уенделл Пирс, Джон Хугенэккер, Эбби Корниш, Али Сулиман, Хааз Слейман, Эммануэль Люссье Мартинес, Йован Адепо

Описание:

Аналитик ЦРУ Джек Райан натыкается на подозрительную серию банковских переводов и начинает собственное расследование. Оно заставляет героя оставить безопасную офисную работу и включиться в смертельную игру кошки-мышки по всей Европе и на Ближнем Востоке с лидером террористов, готовящим массированную атаку на США и её союзников.

Качество: WEBRip 7220р
Формат: MKV

Видео: ~ 3400 Кбит/с, 1280х720, 23.970 fps
Аудио: Русский (AC3, 2 ch, 192 Кбит/с)
Аудио: английский (E-AC-3, 6 ch, 640 Кбит/с)
скриншот  скриншот  скриншот  скриншот  

Общее
Уникальный идентификатор : 154574531127956302487693251753365055058 (0x7449F8C8CB9FF02A464BAE871739A652)
Полное имя : D:\Tom.Clancys.Jack.Ryan.S01.720p.GostFilm\Tom.Clancys.Jack.Ryan.S01E01.720p.GostFilm.mkv
Формат : Matroska
Версия формата : Version 4 / Version 2
Размер файла : 1,93 Гбайт
Продолжительность : 1 ч. 4 м.
Режим общего битрейта : Переменный
Общий поток : 4251 Кбит/сек
Дата кодирования : UTC 2018-09-01 01:11:47
Программа кодирования : mkvmerge v22.0.0 ('At The End Of The World') 64-bit
Библиотека кодирования : libebml v1.3.5 + libmatroska v1.4.8

Видео
Идентификатор : 1
Формат : AVC
Формат/Информация : Advanced Video Codec
Профиль формата : High@L3.1
Параметр CABAC формата : Да
Параметр RefFrames формата : 5 кадров
Идентификатор кодека : V_MPEG4/ISO/AVC
Продолжительность : 1 ч. 4 м.
Вид битрейта : Переменный
Битрейт : 3415 Кбит/сек
Максимальный битрейт : 4500 Кбит/сек
Ширина : 1280 пикселей
Высота : 720 пикселей
Соотношение сторон : 16:9
Режим частоты кадров : Постоянный
Частота кадров : 23,976 (24000/1001) кадра/сек
Цветовое пространство : YUV
Субдискретизация насыщенности : 4:2:0
Битовая глубина : 8 бит
Тип развёртки : Прогрессивная
Бит/(Пиксели*Кадры) : 0.155
Размер потока : 1,55 Гбайт (80%)
Default : Да
Forced : Нет
Цветовой диапазон : Limited
Основные цвета : BT.709
Характеристики трансфера : BT.709
Коэффициенты матрицы : BT.709

Аудио #1
Идентификатор : 2
Формат : AC-3
Формат/Информация : Audio Coding 3
Расширение режима : CM (complete main)
Параметр Endianness формата : Big
Идентификатор кодека : A_AC3
Продолжительность : 1 ч. 4 м.
Вид битрейта : Постоянный
Битрейт : 192 Кбит/сек
Каналы : 2 канала
Расположение каналов : Front: L R
Частота : 44,1 КГц
Частота кадров : 28,711 кадров/сек (1536 spf)
Метод сжатия : С потерями
Размер потока : 89,3 Мбайт (5%)
Заголовок : GostFilm
Default : Да
Forced : Да

Аудио #2
Идентификатор : 3
Формат : E-AC-3
Формат/Информация : Audio Coding 3
Параметр Endianness формата : Big
Идентификатор кодека : A_EAC3
Продолжительность : 1 ч. 4 м.
Вид битрейта : Постоянный
Битрейт : 640 Кбит/сек
Каналы : 6 каналов
Расположение каналов : Front: L C R, Side: L R, LFE
Частота : 48,0 КГц
Частота кадров : 187,500 кадров/сек (256 spf)
Метод сжатия : С потерями
Размер потока : 298 Мбайт (15%)
Язык : English
Default : Нет
Forced : Нет

Текст #1
Идентификатор : 4
Формат : UTF-8
Идентификатор кодека : S_TEXT/UTF8
Идентификатор кодека/Информация : UTF-8 Plain Text
Продолжительность : 56 м. 38 с.
Битрейт : 2 бит/сек
ElementCount : 45
Размер потока : 1,02 Кбайт (0%)
Заголовок : Forced
Язык : English
Default : Да
Forced : Да

Текст #2
Идентификатор : 5
Формат : UTF-8
Идентификатор кодека : S_TEXT/UTF8
Идентификатор кодека/Информация : UTF-8 Plain Text
Продолжительность : 1 ч. 2 м.
Битрейт : 45 бит/сек
ElementCount : 820
Размер потока : 20,7 Кбайт (0%)
Заголовок : SDH
Язык : English
Default : Нет
Forced : Нет

Текст #3
Идентификатор : 6
Формат : UTF-8
Идентификатор кодека : S_TEXT/UTF8
Идентификатор кодека/Информация : UTF-8 Plain Text
Продолжительность : 1 ч. 1 м.
Битрейт : 53 бит/сек
ElementCount : 502
Размер потока : 23,9 Кбайт (0%)
Язык : Arabic
Default : Нет
Forced : Нет

Текст #4
Идентификатор : 7
Формат : UTF-8
Идентификатор кодека : S_TEXT/UTF8
Идентификатор кодека/Информация : UTF-8 Plain Text
Продолжительность : 1 ч. 1 м.
Битрейт : 32 бит/сек
ElementCount : 530
Размер потока : 14,8 Кбайт (0%)
Язык : Chinese
Default : Нет
Forced : Нет

Текст #5
Идентификатор : 8
Формат : UTF-8
Идентификатор кодека : S_TEXT/UTF8
Идентификатор кодека/Информация : UTF-8 Plain Text
Продолжительность : 1 ч. 1 м.
Битрейт : 32 бит/сек
ElementCount : 530
Размер потока : 14,8 Кбайт (0%)
Язык : Chinese
Default : Нет
Forced : Нет

Текст #6
Идентификатор : 9
Формат : UTF-8
Идентификатор кодека : S_TEXT/UTF8
Идентификатор кодека/Информация : UTF-8 Plain Text
Продолжительность : 1 ч. 0 м.
Битрейт : 37 бит/сек
ElementCount : 528
Размер потока : 16,4 Кбайт (0%)
Язык : Danish
Default : Нет
Forced : Нет

Текст #7
Идентификатор : 10
Формат : UTF-8
Идентификатор кодека : S_TEXT/UTF8
Идентификатор кодека/Информация : UTF-8 Plain Text
Продолжительность : 58 м. 2 с.
Битрейт : 40 бит/сек
ElementCount : 444
Размер потока : 17,2 Кбайт (0%)
Язык : German
Default : Нет
Forced : Нет

Текст #8
Идентификатор : 11
Формат : UTF-8
Идентификатор кодека : S_TEXT/UTF8
Идентификатор кодека/Информация : UTF-8 Plain Text
Продолжительность : 1 ч. 1 м.
Битрейт : 37 бит/сек
ElementCount : 527
Размер потока : 16,6 Кбайт (0%)
Язык : Spanish
Default : Нет
Forced : Нет

Текст #9
Идентификатор : 12
Формат : UTF-8
Идентификатор кодека : S_TEXT/UTF8
Идентификатор кодека/Информация : UTF-8 Plain Text
Продолжительность : 1 ч. 1 м.
Битрейт : 37 бит/сек
ElementCount : 527
Размер потока : 16,6 Кбайт (0%)
Язык : Spanish
Default : Нет
Forced : Нет

Текст #10
Идентификатор : 13
Формат : UTF-8
Идентификатор кодека : S_TEXT/UTF8
Идентификатор кодека/Информация : UTF-8 Plain Text
Продолжительность : 1 ч. 1 м.
Битрейт : 35 бит/сек
ElementCount : 527
Размер потока : 15,9 Кбайт (0%)
Язык : Finnish
Default : Нет
Forced : Нет

Текст #11
Идентификатор : 14
Формат : UTF-8
Идентификатор кодека : S_TEXT/UTF8
Идентификатор кодека/Информация : UTF-8 Plain Text
Продолжительность : 1 ч. 1 м.
Битрейт : 38 бит/сек
ElementCount : 524
Размер потока : 17,2 Кбайт (0%)
Язык : French
Default : Нет
Forced : Нет

Текст #12
Идентификатор : 15
Формат : UTF-8
Идентификатор кодека : S_TEXT/UTF8
Идентификатор кодека/Информация : UTF-8 Plain Text
Продолжительность : 1 ч. 1 м.
Битрейт : 92 бит/сек
ElementCount : 530
Размер потока : 41,6 Кбайт (0%)
Язык : Hindi
Default : Нет
Forced : Нет

Текст #13
Идентификатор : 16
Формат : UTF-8
Идентификатор кодека : S_TEXT/UTF8
Идентификатор кодека/Информация : UTF-8 Plain Text
Продолжительность : 1 ч. 1 м.
Битрейт : 34 бит/сек
ElementCount : 530
Размер потока : 15,2 Кбайт (0%)
Язык : Indonesian
Default : Нет
Forced : Нет

Текст #14
Идентификатор : 17
Формат : UTF-8
Идентификатор кодека : S_TEXT/UTF8
Идентификатор кодека/Информация : UTF-8 Plain Text
Продолжительность : 1 ч. 0 м.
Битрейт : 37 бит/сек
ElementCount : 527
Размер потока : 16,4 Кбайт (0%)
Язык : Italian
Default : Нет
Forced : Нет

Текст #15
Идентификатор : 18
Формат : UTF-8
Идентификатор кодека : S_TEXT/UTF8
Идентификатор кодека/Информация : UTF-8 Plain Text
Продолжительность : 1 ч. 1 м.
Битрейт : 39 бит/сек
ElementCount : 530
Размер потока : 17,8 Кбайт (0%)
Язык : Korean
Default : Нет
Forced : Нет

Текст #16
Идентификатор : 19
Формат : UTF-8
Идентификатор кодека : S_TEXT/UTF8
Идентификатор кодека/Информация : UTF-8 Plain Text
Продолжительность : 1 ч. 1 м.
Битрейт : 35 бит/сек
ElementCount : 530
Размер потока : 15,7 Кбайт (0%)
Язык : Norwegian Bokmal
Default : Нет
Forced : Нет

Текст #17
Идентификатор : 20
Формат : UTF-8
Идентификатор кодека : S_TEXT/UTF8
Идентификатор кодека/Информация : UTF-8 Plain Text
Продолжительность : 1 ч. 0 м.
Битрейт : 34 бит/сек
ElementCount : 529
Размер потока : 15,1 Кбайт (0%)
Язык : Dutch
Default : Нет
Forced : Нет

Текст #18
Идентификатор : 21
Формат : UTF-8
Идентификатор кодека : S_TEXT/UTF8
Идентификатор кодека/Информация : UTF-8 Plain Text
Продолжительность : 1 ч. 0 м.
Битрейт : 34 бит/сек
ElementCount : 518
Размер потока : 15,3 Кбайт (0%)
Язык : Polish
Default : Нет
Forced : Нет

Текст #19
Идентификатор : 22
Формат : UTF-8
Идентификатор кодека : S_TEXT/UTF8
Идентификатор кодека/Информация : UTF-8 Plain Text
Продолжительность : 1 ч. 1 м.
Битрейт : 36 бит/сек
ElementCount : 530
Размер потока : 16,2 Кбайт (0%)
Язык : Portuguese
Default : Нет
Forced : Нет

Текст #20
Идентификатор : 23
Формат : UTF-8
Идентификатор кодека : S_TEXT/UTF8
Идентификатор кодека/Информация : UTF-8 Plain Text
Продолжительность : 1 ч. 1 м.
Битрейт : 67 бит/сек
ElementCount : 530
Размер потока : 30,0 Кбайт (0%)
Язык : Russian
Default : Нет
Forced : Нет

Текст #21
Идентификатор : 24
Формат : UTF-8
Идентификатор кодека : S_TEXT/UTF8
Идентификатор кодека/Информация : UTF-8 Plain Text
Продолжительность : 1 ч. 0 м.
Битрейт : 35 бит/сек
ElementCount : 527
Размер потока : 15,8 Кбайт (0%)
Язык : Swedish
Default : Нет
Forced : Нет

Текст #22
Идентификатор : 25
Формат : UTF-8
Идентификатор кодека : S_TEXT/UTF8
Идентификатор кодека/Информация : UTF-8 Plain Text
Продолжительность : 1 ч. 1 м.
Битрейт : 108 бит/сек
ElementCount : 530
Размер потока : 48,4 Кбайт (0%)
Язык : Tamil
Default : Нет
Forced : Нет

Текст #23
Идентификатор : 26
Формат : UTF-8
Идентификатор кодека : S_TEXT/UTF8
Идентификатор кодека/Информация : UTF-8 Plain Text
Продолжительность : 1 ч. 1 м.
Битрейт : 96 бит/сек
ElementCount : 530
Размер потока : 43,3 Кбайт (0%)
Язык : Telugu
Default : Нет
Forced : Нет

Текст #24
Идентификатор : 27
Формат : UTF-8
Идентификатор кодека : S_TEXT/UTF8
Идентификатор кодека/Информация : UTF-8 Plain Text
Продолжительность : 1 ч. 1 м.
Битрейт : 38 бит/сек
ElementCount : 529
Размер потока : 17,3 Кбайт (0%)
Язык : Turkish
Default : Нет
Forced : Нет

Меню
00:00:00.000 : en:Amazon Original
00:00:05.000 : en:Title Sequence
00:00:29.000 : en:Lebanon 1983
00:02:44.000 : en:Washington D.C. present day
00:10:54.000 : en:Al Mnajeer, Syria
00:13:41.000 : en:Jack discovers a connection
00:20:12.000 : en:Hanin has suspicions about their guest
00:21:51.000 : en:Jack takes matters into his own hands
00:23:37.000 : en:Greer confronts Ryan about his actions
00:27:06.000 : en:A covert mission in Yemen
00:31:05.000 : en:Jack takes an unexpected trip
00:38:01.000 : en:Sarawat Mountains, Yemen
00:42:14.000 : en:Jack visits the other prisoner
00:45:55.000 : en:The base gets an unexpected delivery
00:50:52.000 : en:Jack learns the truth the hard way
01:02:58.000 : en:End Credits

pb.wtf



Скачать Джек Райан через торрент https://a.radikal.ru/a37/1809/09/9079467f76d7.jpg Скачать фильм Джек Райан через торрент бесплантно в хорошем качестве Описание: Аналитик ЦРУ Джек Райан натыкается на подозрительную серию банковских переводов и начинает собственное расследование. Оно ... 10 10 2
Info! Серебряная раздача, засчитывается только 50% скачанного.
Торрент: Зарегистрирован [2018-09-03 07:30] · скачан: 30 раз
Статус: √ проверено
Размер: 10.92 GB
Как cкачать? Как скачать Джек Райан через торрент | qTorrent

% Раздел Тема Автор DL S | L
Зарубежные сериалы [ 12.74 GB ] Джек Райан / Jack Ryan / Сезон: 2 / Серии: 1-8 из 8 [2019 WEBRip 720p] [DVO] killermax2013 Скачать
1 | 0
Зарубежные сериалы [ 24.67 GB ] Джек Райан / Jack Ryan / Сезон: 2 / Серии: 1-8 из 8 [2019 WEB-DL 1080p] MVO [TVShows] bober100 Скачать
1 | 0
Зарубежные сериалы [ 23.85 GB ] Джек Райан / Jack Ryan / Сезон: 2 / Серия: 1-8 из 8 [2019 WEB-DL 1080p] MVO [Jaskier] bober100 Скачать
1 | 0
Зарубежные сериалы [ 11.42 GB ] Джек Райан / Jack Ryan / Сезон: 2 / Серия: 1-8 из 8 [2019 WEB-DL 720p] MVO [Jaskier] bober100 Скачать
1 | 0
Зарубежные сериалы [ 4.31 GB ] Джек Райан / Jack Ryan / Сезон: 2 / Серия: 1-8 из 8 [2019 WEB-DLRip] MVO [Jaskier] bober100 Скачать
1 | 0
Зарубежные сериалы [ 12.74 GB ] Джек Райан / Jack Ryan / Сезон: 2 / Серия: 1-8 из 8 [2019 WEB-DL 720p] MVO [Lostfilm] bober100 Скачать
1 | 0
Зарубежные сериалы [ 5.16 GB ] Джек Райан / Jack Ryan / Сезон: 2 / Серии: 1-8 из 8 [2019 WEB-DLRip] MVO [LostFilm] bober100 Скачать
1 | 0

28-11-2019 20:33  

Отключить всю рекламу на сайте

    Дорогой пользователь! Огромная просьба, поблагодарите релизера, оцените раздачу и оставьте свои комментарий, если Вы скачали Джек Райан через торрент бесплатно! Внесите свою лепту в развитие PiratBit!
    Комментировать посты могут только пользователи прошедшие не сложную регистрацию
    Показать сообщения:    

    Джек Райан через торрент
    Скачать бесплатно Джек Райан
    Джек Райан скачать торрент
    Джек Райан смотреть онлайн
    Cкачать фильм Джек Райан бесплатно
    Джек Райан скачать торрент в хорошем качестве
    Джек Райан смотреть онлайн бесплатно в хорошем качестве


    Вы не можете начинать темы
    Вы не можете отвечать на сообщения
    Вы не можете редактировать свои сообщения
    Вы не можете удалять свои сообщения
    Вы не можете голосовать в опросах
    Вы не можете прикреплять файлы к сообщениям
    Вы можете скачивать файлы