Marvel's Avengers Deluxe Edition (супер цена) 159р. Внимание количество ограничено!!!

2 сезон

iTunes

iTunes

1

iTunes

iTunes

iTunes

WEBRip

iTunes

30
pack

Новость дня

ВАЖНО

!!Акция!!

Alien_RageХит недели

RePack

Horizon Zero Dawn

ИГРА 18+

pack

RePack

jed

!!Акция!!

Alien_Rage

RePack

fifa19

RePack

Assassins Creed: Odyssey

RePack

NEED FOR SPEED™ PAYBACK

4 сезон

9 сезон

Бесстыжие 9 сезон

Все сериалы

все сериалы на PB.wtf

RePack

FAR CRY 5
  

Месяц призраков в женском общежитии 2 / Past And Present (Ли Цзянь) [2016, драма, WEB-DL 720p] MVO [КОЛОБОК] pb.wtf

Месяц призраков в женском общежитии 2 через торрент pb.wtf

Размер: 3.05 GB | Добавлен: 2 года назад | Торрент скачан:0 раз
Скачать  

03-09-2018 09:01 Месяц призраков в женском общежитии 2 Скачать торрент  

Месяц призраков в женском общежитии 2 / Past And Present
Год выпуска: 2016
Страна: Китай
Жанр: драма
Продолжительность: 01:30:41
Перевод: Любительский (многоголосый) | КОЛОБОК
Субтитры: отсутствуют

Режиссер: Ли Цзянь



В ролях:

Мейсин Чен, Зимо Чжай, Сян Ло, Лян Ванг, Цзи Чжао, Цин Мяо, Йиран Чанг, Человек Фу

Описание:

Фильм основан на истории китайского клуба, снимавшего ролики ужасов. Однажды в День Духов китайские студенты, участники этого клуба, решают испытать судьбу и снять вирусный ролик - вызвав настоящего призрака. Но то что началось как забава, вскоре превращается в ужасающую реальность.

Качество: WEB-DL 720p
Формат: MKV

Видео: h.264, 4 428 Кбит/с, 1280x576
Аудио#1: Русский, (AC3, 2 ch, 384 Кбит/с)
скриншот  скриншот  скриншот  

Общее
Уникальный идентификатор : 195695517623633547609906349871225831190 (0x933995F2E267054A9E8286C8BA66FF16)
Полное имя : D:\Past And Present 2016.Pk.WEB-DL.72Op.mkv
Формат : Matroska
Версия формата : Version 2
Размер файла : 3,05 Гбайт
Продолжительность : 1 ч. 30 м.
Режим общего битрейта : Переменный
Общий поток : 4814 Кбит/сек
Дата кодирования : UTC 2018-08-08 04:03:26
Программа кодирования : mkvmerge v8.3.0 ('Over the Horizon') 64bit
Библиотека кодирования : libebml v1.3.1 + libmatroska v1.4.2

Видео
Идентификатор : 1
Формат : AVC
Формат/Информация : Advanced Video Codec
Профиль формата : High@L4.1
Параметр CABAC формата : Да
Параметр RefFrames формата : 4 кадра
Идентификатор кодека : V_MPEG4/ISO/AVC
Продолжительность : 1 ч. 30 м.
Вид битрейта : Переменный
Битрейт : 4428 Кбит/сек
Максимальный битрейт : 5000 Кбит/сек
Ширина : 1280 пикселей
Высота : 576 пикселей
Соотношение сторон : 2,222
Режим частоты кадров : Постоянный
Частота кадров : 23,976 (24000/1001) кадра/сек
Стандарт вещания : Component
Цветовое пространство : YUV
Субдискретизация насыщенности : 4:2:0
Битовая глубина : 8 бит
Тип развёртки : Прогрессивная
Бит/(Пиксели*Кадры) : 0.245
Размер потока : 2,75 Гбайт (90%)
Default : Да
Forced : Нет
Цветовой диапазон : Limited
Основные цвета : BT.709
Характеристики трансфера : BT.709
Коэффициенты матрицы : BT.709

Аудио
Идентификатор : 2
Формат : AC-3
Формат/Информация : Audio Coding 3
Расширение режима : CM (complete main)
Параметр Endianness формата : Big
Идентификатор кодека : A_AC3
Продолжительность : 1 ч. 30 м.
Вид битрейта : Постоянный
Битрейт : 384 Кбит/сек
Каналы : 2 канала
Расположение каналов : Front: L R
Частота : 48,0 КГц
Частота кадров : 31,250 кадров/сек (1536 spf)
Метод сжатия : С потерями
Размер потока : 249 Мбайт (8%)
Default : Да
Forced : Нет

pb.wtf



Скачать Месяц призраков в женском общежитии 2 через торрент https://b.radikal.ru/b23/1809/50/f4a61c312ad4.jpg Скачать фильм Месяц призраков в женском общежитии 2 через торрент бесплантно в хорошем качестве Описание: Фильм основан на истории китайского клуба, снимавшего ролики ужасов. Однажды в День Духов китайские студенты, участники этого ... 10 10 3
Торрент: Зарегистрирован [2018-09-03 09:01] · скачан: 0 раз
Статус: T временная
Размер: 3.05 GB
Как cкачать? Как скачать Месяц призраков в женском общежитии 2 через торрент | qTorrent

% Раздел Тема Автор DL S | L
T Фильмы (мультфильмы) cо спонсором показа (Новинки AVI/MKV) [ 1.37 GB ] Месяц призраков в женском общежитии 2 / Past And Present [2016 WEB-DLRip] MVO [КОЛОБОК] bober100 Скачать
1 | 0

28-11-2019 20:33  

Отключить всю рекламу на сайте

    Дорогой пользователь! Огромная просьба, поблагодарите релизера, оцените раздачу и оставьте свои комментарий, если Вы скачали Месяц призраков в женском общежитии 2 через торрент бесплатно! Внесите свою лепту в развитие PiratBit!
    Комментировать посты могут только пользователи прошедшие не сложную регистрацию
    Показать сообщения:    

    Месяц призраков в женском общежитии 2 через торрент
    Скачать бесплатно Месяц призраков в женском общежитии 2
    Месяц призраков в женском общежитии 2 скачать торрент
    Месяц призраков в женском общежитии 2 смотреть онлайн
    Cкачать фильм Месяц призраков в женском общежитии 2 бесплатно
    Месяц призраков в женском общежитии 2 скачать торрент в хорошем качестве
    Месяц призраков в женском общежитии 2 смотреть онлайн бесплатно в хорошем качестве


    Вы не можете начинать темы
    Вы не можете отвечать на сообщения
    Вы не можете редактировать свои сообщения
    Вы не можете удалять свои сообщения
    Вы не можете голосовать в опросах
    Вы не можете прикреплять файлы к сообщениям
    Вы можете скачивать файлы