новый адрес
Ссылка на приватное зеркало всего за 1$. Внимание количество ограничено!!!

iTunes

1+1

iTunes

мы

iTunes

1

iTunes

Чернобыль

iTunes

Ральф против интернета

Лицензия

ПШазам

Лицензия

Оно 2

Лицензия

30
pack

Вам бонус

ВАЖНО

!!Акция!!

Alien_RageХит недели

RePack

Resident Evil 21

ИГРА 18+

pack

RePack

jed

!!Акция!!

Alien_Rage

RePack

fifa19

RePack

Assassins Creed: Odyssey

RePack

NEED FOR SPEED™ PAYBACK

3 сезон

9 сезон

Бесстыжие 9 сезон

Все сериалы

все сериалы на PB.wtf

RePack

FAR CRY 5
Ребята, катастрофически не хватает 1900р. для оплаты серверов за Октябрь (всвязи с блокировками трафик упал в 3 раза), 1-2р., выручайте.
  

Озеро страха: Наследие / Lake Placid: Legacy (Даррелл Рудт) [2018, Ужасы, фантастика, боевик, триллер, WEB-DLRip] MVO [Лицензия / iTunes] pb.wtf

Озеро страха: Наследие через торрент pb.wtf

Раздают: 1 [ 0 KB/s ]
Размер: 1.46 GB | Добавлен: 1 год 3 мес. назад | Торрент скачан:445 раз
Скачать  

03-09-2018 11:49 Озеро страха: Наследие Скачать торрент  

Озеро страха: Наследие / Lake Placid: Legacy
Год выпуска: 2018
Страна: ЮАР
Жанр: Ужасы, фантастика, боевик, триллер
Продолжительность: 01:33:07
Перевод: Профессиональный многоголосый | Лицензия / iTunes
Субтитры: отсутствуют

Режиссер: Даррелл Рудт

rating

В ролях:

Кэтерин Баррелл, Тим Розон, Сай Беннетт, Люк Ньютон, Крэйг Стейн, Джо Пантольяно, Алиша Бэйли, Макс Болдри, Грег Крик и др.

Описание:

Сэм и его друзья Билли, Спенсер, Джейд и Элис – борцы с системой. Они разоблачают происки гигантских корпораций, которые наносят непоправимый вред китам и людям, всей окружающей среде. И ради этой цели они не останавливаются перед мелкими нарушениями закона. К примеру, они спокойно проникают в частные владения в поисках актуальной информации и острых ощущений. Но бесконечно это продолжаться не может. Сэм понимает, что ему пора остепениться. Он обещает своей подруге Джейд, что им предстоит последнее приключение.Это место отсутствует на картах, вход туда строго воспрещен. Среди местных жителей ходят зловещие слухи о том, что находящееся здесь озеро жутко токсично, что уровень радиации тут просто зашкаливает. Но Сэма и его команду слухами не остановишь. Они проникают на запретную территорию. С радиацией здесь все нормально. Вот только земля на острове посреди озера покрыта ошметками человеческих тел. На земле видны отпечатки чьих-то следов. Сэм обнаруживает видеокамеру. На ней два ролика. После их просмотра ребята стремительно несутся к причалу. Кому из них удастся невредимым покинуть ужасный остров? И чья это тень угрожающе проносится под днищем их лодки?

Качество: WEB-DLRip
Формат: AVI

Видео: Xvid 73, 720x384, ~1850 kbps, 23,976 fps
Аудио: русский, AC3, 5.1 ch, 48 kHz, 384 kbps | iTunes
скриншот   скриншот   скриншот   скриншот   скриншот  

General
Полное имя : F:TorrentOzeroStrahaNasledieWEBDLRip.avi
Формат : AVI
Формат/Информация : Audio Video Interleave
Профиль формата : OpenDML
Размер файла : 1.46 GiB
Продолжительность : 1 h 33 min
Общий поток : 2 242 kb/s
Программа кодирования : XviD4PSP 6.0 / 54.27.101

Video
Идентификатор : 0
Формат : MPEG-4 Visual
Профиль формата : Advanced Simple@L5
Настройки формата : BVOP2 / Custom Matrix
Параметр BVOP формата : 2
Параметр QPel формата : No
Параметр GMC формата : No warppoints
Параметр матрицы формата : Custom
Идентификатор кодека : XVID
Идентификатор кодека/Подсказка : XviD
Продолжительность : 1 h 33 min
Битрейт : 1 847 kb/s
Ширина : 720 pixels
Высота : 384 pixels
Соотношение сторон : 1.85:1
Частота кадров : 23.976 (23976/1000) FPS
Цветовое пространство : YUV
Субдискретизация насыщенности : 4:2:0
Битовая глубина : 8 bits
Тип развёртки : Progressive
Метод сжатия : Lossy
Бит/(Пиксели*Кадры) : 0.279
Размер потока : 1.20 GiB (82%)
Библиотека кодирования : XviD 73

Audio
Идентификатор : 1
Формат : AC-3
Формат/Информация : Audio Coding 3
Идентификатор кодека : 2000
Продолжительность : 1 h 33 min
Вид битрейта : Constant
Битрейт : 384 kb/s
Каналы : 6 channels
Расположение каналов : Front: L C R, Side: L R, LFE
Частота : 48.0 kHz
Частота кадров : 31.250 FPS (1536 SPF)
Битовая глубина : 16 bits
Метод сжатия : Lossy
Размер потока : 256 MiB (17%)
Выравнивание : Aligned on interleaves
Продолжительность промежутка : 32 ms (0.77 video frame)

pb.wtf



Скачать Озеро страха: Наследие через торрент http://i103.fastpic.ru/big/2018/0903/86/eb0bad9d59ea90981e4a540ddd49d586.jpeg Скачать фильм Озеро страха: Наследие через торрент бесплантно в хорошем качестве Описание: Сэм и его друзья Билли, Спенсер, Джейд и Элис – борцы с системой. Они разоблачают происки гигантских корпораций, которые наносят ... 9.5 10 19
Торрент: Зарегистрирован [2018-09-03 11:49] · скачан: 445 раз
Статус: √ проверено
Размер: 1.46 GB
Как cкачать? Как скачать Озеро страха: Наследие через торрент | qTorrent

% Раздел Тема Автор DL S | L
Фильмы (WEB-DL 720p, 1080p) [ 3.9 GB ] Озеро страха: Наследие / Lake Placid: Legacy [2018 WEB-DL 1080p] MVO bober100 Скачать
2 | 0
Фильмы 2018 [DVDrip, WEB-DLRip, HDrip] (DUB, MVO) [ 2.15 GB ] Озеро страха: Наследие / Lake Placid: Legacy [2018 WEB-DLRip-AVC] MVO - ExKinoRay Enigma2010 Скачать
2 | 0
Отключить всю рекламу на сайте

03-09-2018 12:39 Озеро страха: Наследие Скачать торрент  

И чья это тень носиться под дном лодки? Интрига. Ответ в первом скриншотеpb.wtf



03-09-2018 13:53 Озеро страха: Наследие Скачать торрент  

Классная псина на первом скрине,,, pb.wtf



03-09-2018 15:54 Озеро страха: Наследие Скачать торрент  

фигня а не фильм!!!pb.wtf



03-09-2018 20:53 Озеро страха: Наследие Скачать торрент  

Какая тень ! Тень статиста или никчёмного актера второго плана пытающегося заработать на бездарном кино на пару бутылок пива . Вот и все . Вот и все кино . Расходимся друзья.pb.wtf



05-09-2018 10:16 Озеро страха: Наследие Скачать торрент  

самая плохая часть в этой франшизе крокодила показали в самом конце и то минуты на 3 короче хоть я и люблю такие фильмы но этот кал даже мне непондравилсяpb.wtf



    Дорогой пользователь! Огромная просьба, поблагодарите релизера, оцените раздачу и оставьте свои комментарий, если Вы скачали Озеро страха: Наследие через торрент бесплатно! Внесите свою лепту в развитие PiratBit!
    Комментировать посты могут только пользователи прошедшие не сложную регистрацию
    Показать сообщения:    

    Озеро страха: Наследие через торрент
    Скачать бесплатно Озеро страха: Наследие
    Озеро страха: Наследие скачать торрент
    Озеро страха: Наследие смотреть онлайн
    Cкачать фильм Озеро страха: Наследие бесплатно
    Озеро страха: Наследие скачать торрент в хорошем качестве
    Озеро страха: Наследие смотреть онлайн бесплатно в хорошем качестве


    Вы не можете начинать темы
    Вы не можете отвечать на сообщения
    Вы не можете редактировать свои сообщения
    Вы не можете удалять свои сообщения
    Вы не можете голосовать в опросах
    Вы не можете прикреплять файлы к сообщениям
    Вы можете скачивать файлы