Ссылка на приватное зеркало нашего сайта всего за 1$. Внимание количество ограничено!!!

2 сезон

iTunes

1 сезон

1

iTunes

iTunes

iTunes

1 сезон

RePack

30

ИГРА 18+

pack

ВАЖНО

!!Акция!!

Alien_RageХит недели

RePack

MK11
pack

Забери бонус

RePack

jed

!!Акция!!

Alien_Rage

RePack

fifa19

RePack

Assassins Creed: Odyssey

RePack

NEED FOR SPEED™ PAYBACK

4 сезон

9 сезон

Бесстыжие 9 сезон

Все сериалы

все сериалы на PB.wtf

RePack

FAR CRY 5
  

Челночницы: Продолжение / Сезон: 2 / Серии: 1-16 из 16 (Юлия Краснова) [2018, Мелодрама, SATRip] pb.wtf

Челночницы: Продолжение через торрент pb.wtf

Раздают: 1 [ 0 KB/s ]
Размер: 10.44 GB | Добавлен: 2 года 1 мес. назад | Торрент скачан:61 раз
Скачать  

03-09-2018 12:02 Челночницы: Продолжение Скачать торрент  

Челночницы: Продолжение
Год выпуска: 2018
Страна: Россия
Жанр: Мелодрама
Продолжительность: ~ 00:43:00 серия
Субтитры: отсутствуют

Режиссер: Юлия Краснова



В ролях:

Мария Порошина, Владимир Епифанцев, Светлана Иванова, Вера Смолина, Артем Фадеев, Ольга (Лёля) Баранова, Зоряна Марченко, Елена Панова, Вадим Колганов, Сослан Фидаров, Екатерина Травова, Илья Соколовский, Людмила Гнилова, Ирина Розанова

Описание:

Действие картины "Челночницы" начинается в 1994 году в Подмосковном Восходе, в небольшом авиагородке. Этот сериал расскажет о сильных женщинах лихих 90-х, на плечи которых легли все сложности выживания своих семей в то сложное время, когда их мужья летчики после распада СССР остались без работы. Эти переходные годы массовой растерянности и непонимания, стали временем этих женщин - челночниц. Продавали, завозили в страну те товары которых еще не было, а ведь не было практически ничего. С тяжелыми тюками и сумками они выживали, каждый день сталкиваясь со всеми проблемами передела собственности 90-х... Это было сложное время для большинства семей, проживающих в маленьком военном городке Восход. По сюжету сериала "Челночницы", две молодые женщины, Ольга Родионова и Светлана Лютуя близкие подруги. Их мужья проходят службу в одной воинской части, более того их дети, Аня и Степан, ходят в школу в один класс. Ситуация усложняется когда за торговлю на рынке Ольгу увольняют из школы. Начинающий бизнесвумен Элла, племянница смотрящей за рынком Зои, делает предложение безработным Ольге и Cветлане работать вместе, привозя из-за границы вещи для рынка. Однако в то время это очень опасное и рискованное занятие. Как же сложилась дальнейшая судьба этих женщин в это не простое время? И какие еще перепетии 90-х ожидают главных героев сериала "Челночницы". Ответы на эти вопросы телезрители смогут найти посмотрев все серии мелодрамы. Учитывая по настоящему звездный актерский состав сериала "Челночницы", в котором телезрители канала Россия 1 увидят таких артистов как Мария Порошина, Владимир Епифанцев, Светлана Иванова, Вера Смолина, Зоряна Марченко, Елена Панова, Вадим Колганов и многих других, можно смело утверждать что данная картина обязательно понравится. Не пропустите

Качество: SATRip
Формат: AVI

Видео: XviD, ~ 1800 Кбит/с, 720x400
Аудио: MP3, 2 ch, 192 Кбит/с
скриншот  скриншот  скриншот  

Общее
Полное имя : D:\Chelnochnitsy.s02.XviD.SATRip.25Kuzmich\Chelnochnitsy.s02.e01.XviD.SATRip.25Kuzmich.avi
Формат : AVI
Формат/Информация : Audio Video Interleave
Размер файла : 665 Мбайт
Продолжительность : 50 м. 14 с.
Общий поток : 1851 Кбит/сек
Программа кодирования : VirtualDubMod 1.5.10.3 | www.virtualdub-fr.org || (build 2550/release)
Библиотека кодирования : VirtualDubMod build 2550/release

Видео
Идентификатор : 0
Формат : MPEG-4 Visual
Профиль формата : Advanced Simple@L5
Параметр BVOP формата : 1
Параметр QPel формата : Нет
Параметр GMC формата : Без точки перехода
Параметр матрицы формата : Default (MPEG)
Идентификатор кодека : XVID
Идентификатор кодека/Подсказка : XviD
Продолжительность : 50 м. 14 с.
Битрейт : 1650 Кбит/сек
Ширина : 720 пикселей
Высота : 400 пикселей
Соотношение сторон : 16:9
Частота кадров : 25,000 кадров/сек
Цветовое пространство : YUV
Субдискретизация насыщенности : 4:2:0
Битовая глубина : 8 бит
Тип развёртки : Прогрессивная
Метод сжатия : С потерями
Бит/(Пиксели*Кадры) : 0.229
Размер потока : 593 Мбайт (89%)
Библиотека кодирования : XviD 1.2.1 (UTC 2008-12-04)

Аудио
Идентификатор : 1
Формат : MPEG Audio
Версия формата : Version 1
Профиль формата : Layer 3
Режим : Joint stereo
Расширение режима : MS Stereo
Идентификатор кодека : 55
Идентификатор кодека/Подсказка : MP3
Продолжительность : 50 м. 14 с.
Вид битрейта : Постоянный
Битрейт : 192 Кбит/сек
Каналы : 2 канала
Частота : 48,0 КГц
Метод сжатия : С потерями
Размер потока : 69,0 Мбайт (10%)
Выравнивание : Соединение по промежуткам
Продолжительность промежутка : 40 мс. (1,00 видеокадр)
Время предзагрузки промежутка : 504 мс.
Библиотека кодирования : LAME3.99r
Настройки программы : -m j -V 4 -q 2 -lowpass 18.6 -b 192

Внимание! Раздача ведётся путём добавления новых серий; при каждом добавлении создаётся новый торрент. Чтобы начать докачку новой серии, пользователям необходимо сделать следующее:
Остановить скачивание.
Удалить старый торрент у себя из клиента (старые серии удалять не надо).
Скачать новый торрент и запустить его у себя в клиенте вместо старого, при этом указать клиенту путь в старую папку куда и должно происходить скачивание новых серий.

Ваш клиент при этом должен произвести хеширование (проверку) старой папки (если не производит сам - помогите ему сделать это), и будет докачивать только те серии которых у вас ещё нет. Старые серии при этом не удаляются, а продолжают раздаваться!
Eсли вы уже удалили старые серии, то предотвратить повторную закачку старых серий можно, отжав галочку в соответсвующих местах при запуске нового торрента. По возможности, желательно не удалять старые серии как можно дольше чтобы релизёр не столько продолжал раздавать старые серии, а смог сконцентрироваться на новых.
pb.wtf



Скачать Челночницы: Продолжение через торрент https://a.radikal.ru/a04/1809/28/c42a0d55f541.jpg Скачать фильм Челночницы: Продолжение через торрент бесплантно в хорошем качестве Описание: Действие картины "Челночницы" начинается в 1994 году в Подмосковном Восходе, в небольшом авиагородке. Этот сериал расскажет о ... 8.7 10 7
Торрент: Зарегистрирован [2018-09-15 14:24] · скачан: 61 раз
Статус: √ проверено
Размер: 10.44 GB
Как cкачать? Как скачать Челночницы: Продолжение через торрент | qTorrent

% Раздел Тема Автор DL S | L
Наши сериалы [ 40.79 GB ] Челночницы Продолжение Сезон: 2 / Серии: [2018 HDTV 1080p] [Русский] R.G.Generalfilm White Smoke Скачать
1 | 0
Наши сериалы [ 11.25 GB ] Челночницы. Продолжение / Сезон-2 / Серии: 1-16 из 16 [2018 SATRip-AVC] aleksan55 Скачать
1 | 0

28-11-2019 20:33  

Отключить всю рекламу на сайте

    Дорогой пользователь! Огромная просьба, поблагодарите релизера, оцените раздачу и оставьте свои комментарий, если Вы скачали Челночницы: Продолжение через торрент бесплатно! Внесите свою лепту в развитие PiratBit!
    Комментировать посты могут только пользователи прошедшие не сложную регистрацию
    Показать сообщения:    

    Челночницы: Продолжение через торрент
    Скачать бесплатно Челночницы: Продолжение
    Челночницы: Продолжение скачать торрент
    Челночницы: Продолжение смотреть онлайн
    Cкачать фильм Челночницы: Продолжение бесплатно
    Челночницы: Продолжение скачать торрент в хорошем качестве
    Челночницы: Продолжение смотреть онлайн бесплатно в хорошем качестве


    Вы не можете начинать темы
    Вы не можете отвечать на сообщения
    Вы не можете редактировать свои сообщения
    Вы не можете удалять свои сообщения
    Вы не можете голосовать в опросах
    Вы не можете прикреплять файлы к сообщениям
    Вы можете скачивать файлы