Ссылка на приватное зеркало всего за 1$. Внимание количество ограничено!!!

OK

1+1

iTunes

мы

OK

1

WEB-DLRip

Джокер

Пифагор

Ведьмак / The Witcher сериал

Лицензия

ПШазам

ОК

Оно 2

iTunes

30
pack

Вам бонус

ВАЖНО

!!Акция!!

Alien_RageХит недели

RePack

Resident Evil 21

ИГРА 18+

pack

RePack

jed

!!Акция!!

Alien_Rage

RePack

fifa19

RePack

Assassins Creed: Odyssey

RePack

NEED FOR SPEED™ PAYBACK

4 сезон

9 сезон

Бесстыжие 9 сезон

Все сериалы

все сериалы на PB.wtf

RePack

FAR CRY 5
  

Аризона / Arizona (Джонатан Уотсон) [2018, Триллер, комедия, криминал, WEB-DL 1080p] MVO [HDRezka Studio] pb.wtf

Аризона через торрент pb.wtf

Раздают: 1 [ 0 KB/s ]
Размер: 3.05 GB | Добавлен: 1 год 4 мес. назад | Торрент скачан:150 раз
Скачать  

03-09-2018 15:36 Аризона Скачать торрент  

Аризона / Arizona
Год выпуска: 2018
Страна: США
Жанр: Триллер, комедия, криминал
Продолжительность: 01:23:46
Перевод: Профессиональный (многоголосый) | HDRezka Studio
Субтитры: Английские (полные)

Режиссер: Джонатан Уотсон

rating

В ролях:

Элизабет Гиллис, Дэнни МакБрайд, Кэйтлин Олсон, Розмари ДеУитт, Люк Уилсон, Дэвид Алан Грир, Трэвис Хаммер, Каллен Мосс, Джейд Каммерман, Одри Уолтерс

Описание:

Кесси, агент по продаже недвижимости и мать-одиночка, пытается справиться с жилищным кризисом 2009 года. Ситуация только ухудшается, когда в ее жизнь врывается недовольный клиент Сонни, чьи действия приносят только разрушение и смерть.

Качество: WEB-DL 1080p
Формат: MKV

Видео: 1920x804 (2.40:1), 23,976 fps, x264 ~4 641 kbps avg, 0.125 bit/pixel
Аудио#1: 48 kHz, AC3 Dolby Digital, 2 (L,R) ch, ~192.00 kbps avg | RUS (HDRezka Studio)
Аудио#2: 48 kHz, AC3 Dolby Digital Plus, 3/2 (L,C,R,l,r) + LFE ch, ~384.00 kbps avg | ENG
скриншот  скриншот  скриншот  скриншот  скриншот  

Общее
Уникальный идентификатор : 241602556357908398251910253650957287023 (0xB5C2F5B4FED00F550D9866C2409BBE6F)
Полное имя : F:\OlLanDGroup\Arizona.2018.WEB-DL(1080p).OlLanDGroup.mkv
Формат : Matroska
Версия формата : Version 4 / Version 2
Размер файла : 3,05 Гбайт
Продолжительность : 1 ч. 23 м.
Общий поток : 5219 Кбит/сек
Название фильма : Arizona.2018 #TorpedoUK#
Дата кодирования : UTC 2018-09-03 14:11:14
Программа кодирования : mkvmerge v25.0.0 ('Prog Noir') 64-bit
Библиотека кодирования : libebml v1.3.6 + libmatroska v1.4.9
Обложка : Yes
Attachments : small_cover.jpg / small_cover_land.jpg / cover.jpg / cover_land.jpg

Видео
Идентификатор : 1
Формат : AVC
Формат/Информация : Advanced Video Codec
Профиль формата : High@L4
Параметр CABAC формата : Да
Параметр ReFrames формата : 5 кадров
Идентификатор кодека : V_MPEG4/ISO/AVC
Продолжительность : 1 ч. 23 м.
Битрейт : 4641 Кбит/сек
Ширина : 1920 пикселей
Высота : 804 пикселя
Соотношение сторон : 2,40:1
Режим частоты кадров : Постоянный
Частота кадров : 23,976 (23976/1000) кадра/сек
Цветовое пространство : YUV
Субдискретизация насыщенности : 4:2:0
Битовая глубина : 8 бит
Тип развёртки : Прогрессивная
Бит/(Пиксели*Кадры) : 0.125
Размер потока : 2,72 Гбайт (89%)
Заголовок : Arizona.2018.1080p.WEB-DL.DD5.1.H264-FGT
Язык : English
Default : Да
Forced : Нет
Цветовой диапазон : Limited
Основные цвета : BT.709
Характеристики трансфера : BT.709
Коэффициенты матрицы : BT.709

Аудио #1
Идентификатор : 2
Формат : AC-3
Формат/Информация : Audio Coding 3
Расширение режима : CM (complete main)
Параметр Endianness формата : Big
Идентификатор кодека : A_AC3
Продолжительность : 1 ч. 23 м.
Вид битрейта : Постоянный
Битрейт : 192 Кбит/сек
Каналы : 2 канала
Расположение каналов : Front: L R
Частота : 48,0 КГц
Частота кадров : 31,250 кадров/сек (1536 spf)
Битовая глубина : 16 бит
Метод сжатия : С потерями
Задержка видео : -42 мс.
Размер потока : 115 Мбайт (4%)
Заголовок : MVO [HDRezka Studio]
Язык : Russian
Default : Да
Forced : Нет

Аудио #2
Идентификатор : 3
Формат : AC-3
Формат/Информация : Audio Coding 3
Расширение режима : CM (complete main)
Параметр Endianness формата : Big
Идентификатор кодека : A_AC3
Продолжительность : 1 ч. 23 м.
Вид битрейта : Постоянный
Битрейт : 384 Кбит/сек
Каналы : 6 каналов
Расположение каналов : Front: L C R, Side: L R, LFE
Частота : 48,0 КГц
Частота кадров : 31,250 кадров/сек (1536 spf)
Битовая глубина : 16 бит
Метод сжатия : С потерями
Задержка видео : -42 мс.
Размер потока : 230 Мбайт (7%)
Заголовок : [Original]
Язык : English
Default : Нет
Forced : Нет

Текст
Идентификатор : 4
Формат : UTF-8
Идентификатор кодека : S_TEXT/UTF8
Идентификатор кодека/Информация : UTF-8 Plain Text
Продолжительность : 1 ч. 16 м.
Битрейт : 69 бит/сек
Count of elements : 1266
Размер потока : 39,3 Кбайт (0%)
Заголовок : Full
Язык : English
Default : Нет
Forced : Нет

Меню
00:00:00.000 : en:1
00:10:02.852 : en:2
00:25:15.806 : en:3
00:33:30.675 : en:4
00:40:43.315 : en:5
00:51:23.621 : en:6
01:00:21.283 : en:7
01:09:47.349 : en:8
01:18:57.607 : en:9

pb.wtf



Скачать Аризона через торрент http://i103.fastpic.ru/big/2018/0903/cf/0a337583ac04f5b8946b46db32884dcf.jpg Скачать фильм Аризона через торрент бесплантно в хорошем качестве Описание: Кесси, агент по продаже недвижимости и мать-одиночка, пытается справиться с жилищным кризисом 2009 года. Ситуация только ... 9.8 10 6
Торрент: Зарегистрирован [2018-09-03 15:36] · скачан: 150 раз
Статус: T временная
Размер: 3.05 GB
Как cкачать? Как скачать Аризона через торрент | qTorrent

% Раздел Тема Автор DL S | L
T Ultra HD (UHD: 2K, 4K, 8K) — видео сверхвысокой чёткости [ 20.38 GB ] Аризона / Arizona [2018 UHD BDRip 2160p] [SDR] MVO [HDRezka Studio] bober100 Скачать
1 | 0
T Ultra HD (UHD: 2K, 4K, 8K) — видео сверхвысокой чёткости [ 12.38 GB ] Аризона / Arizona [2018 UHD BDRip 2160p] MVO [HDRezka Studio] sheker187 Скачать
1 | 0
T Ultra HD (UHD: 2K, 4K, 8K) — видео сверхвысокой чёткости [ 32.26 GB ] Аризона / Arizona [2018 UHD BDRemux 2160p] MVO [HDRezka Studio] bober100 Скачать
1 | 0
T Фильмы [HD 720p, 1080p] (Хороший звук DUB, MVO) [ 6.67 GB ] Аризона / Arizona [2018 BDRip 1080p HDRezka Studio] Бумер Скачать
1 | 0
T Фильмы 2018 [DVDrip, WEB-DLRip, HDrip] (DUB, MVO) [ 1.46 GB ] Аризона / Arizona [2018 WEB-DLRip-AVC] MVO [HDRezka Studio] bober100 Скачать
1 | 0
Фильмы с авторской озвучкой [ 1.71 GB ] Воспитание Аризоны / Raising Arizona [1987 BDRip] 2x[AVO] killermax2013 Скачать
1 | 1

28-11-2019 20:33  

Отключить всю рекламу на сайте

    Дорогой пользователь! Огромная просьба, поблагодарите релизера, оцените раздачу и оставьте свои комментарий, если Вы скачали Аризона через торрент бесплатно! Внесите свою лепту в развитие PiratBit!
    Комментировать посты могут только пользователи прошедшие не сложную регистрацию
    Показать сообщения:    

    Аризона через торрент
    Скачать бесплатно Аризона
    Аризона скачать торрент
    Аризона смотреть онлайн
    Cкачать фильм Аризона бесплатно
    Аризона скачать торрент в хорошем качестве
    Аризона смотреть онлайн бесплатно в хорошем качестве


    Вы не можете начинать темы
    Вы не можете отвечать на сообщения
    Вы не можете редактировать свои сообщения
    Вы не можете удалять свои сообщения
    Вы не можете голосовать в опросах
    Вы не можете прикреплять файлы к сообщениям
    Вы можете скачивать файлы