Ссылка на приватное зеркало всего за 1$. Внимание количество ограничено!!!

iTunes

1+1

iTunes

мы

WEB-DL

1

iTunes

Чернобыль

iTunes

Ральф против интернета

Лицензия

ПШазам

Лицензия

Оно 2

Лицензия

30
pack

Вам бонус

ВАЖНО

!!Акция!!

Alien_RageХит недели

RePack

Resident Evil 21

ИГРА 18+

pack

RePack

jed

!!Акция!!

Alien_Rage

RePack

fifa19

RePack

Assassins Creed: Odyssey

RePack

NEED FOR SPEED™ PAYBACK

3 сезон

9 сезон

Бесстыжие 9 сезон

Все сериалы

все сериалы на PB.wtf

RePack

FAR CRY 5
Ребята, катастрофически не хватает 1900р. для оплаты серверов за Октябрь (всвязи с блокировками трафик упал в 3 раза), 1-2р., выручайте.
  

Озеро страха: Наследие / Lake Placid: Legacy (Даррелл Рудт) [2018, Ужасы, фантастика, боевик, триллер, WEB-DLRip-AVC] MVO [Лицензия / iTunes] - ExKinoRay pb.wtf

Озеро страха: Наследие через торрент pb.wtf

Размер: 2.15 GB | Добавлен: 1 год 3 мес. назад | Торрент скачан:249 раз
Скачать  

04-09-2018 00:07 Озеро страха: Наследие Скачать торрент  

Информация о фильме
Название: Озеро страха: Наследие
Оригинальное название: Lake Placid: Legacy
Год выхода: 2018
Жанр: Ужасы, фантастика, боевик, триллер
Страна: ЮАР
Перевод: Профессиональный (многоголосый, закадровый) | iTunes
Продолжительность: 01:33:07
Режиссер: Даррелл Рудт
В ролях: Кэтерин Баррелл, Тим Розон, Сай Беннетт, Люк Ньютон, Крэйг Стейн, Джо Пантольяно, Алиша Бэйли, Макс Болдри, Грег Крик и др.

Описание: Сэм и его друзья Билли, Спенсер, Джейд и Элис – борцы с системой. Они разоблачают происки гигантских корпораций, которые наносят непоправимый вред китам и людям, всей окружающей среде. И ради этой цели они не останавливаются перед мелкими нарушениями закона. К примеру, они спокойно проникают в частные владения в поисках актуальной информации и острых ощущений. Но бесконечно это продолжаться не может. Сэм понимает, что ему пора остепениться. Он обещает своей подруге Джейд, что им предстоит последнее приключение.Это место отсутствует на картах, вход туда строго воспрещен. Среди местных жителей ходят зловещие слухи о том, что находящееся здесь озеро жутко токсично, что уровень радиации тут просто зашкаливает. Но Сэма и его команду слухами не остановишь. Они проникают на запретную территорию. С радиацией здесь все нормально. Вот только земля на острове посреди озера покрыта ошметками человеческих тел. На земле видны отпечатки чьих-то следов. Сэм обнаруживает видеокамеру. На ней два ролика. После их просмотра ребята стремительно несутся к причалу. Кому из них удастся невредимым покинуть ужасный остров? И чья это тень угрожающе проносится под днищем их лодки?

rating

Кодек: х264
Качество: WEB-DLRip-AVC
Видео: MPEG-4 AVC, 1024x550, 23,976 fps, ~ 2545 kbps
Аудио 1: AC3, 5/1 ch, 384 Кбит/сек, CBR, 48,0 КГц
Аудио 2: AC3, 5/1 ch, 384 Кбит/сек, CBR, 48,0 КГц
Субтитры: Русские, английские, украинские
Навигация по главам: Есть
General
Unique ID : 181389800094717800012588663063653889801 (0x8876679E68C3E83C85644926AB2BB709)
Complete name : D:\Ozero.Straha.Nasledie.2018.WEB-DLRip.AVC.ExKinoRay.mkv
Format : Matroska
Format version : Version 2
File size : 2.15 GiB
Duration : 1 h 33 min
Overall bit rate : 3 312 kb/s
Movie name : Lake Placid: Legacy (2018) from ExKinoRay
Encoded date : UTC 2018-09-03 22:24:19
Writing application : mkvmerge v5.6.0 ('Kenya Kane') built on May 27 2012 16:44:04
Writing library : libebml v1.2.3 + libmatroska v1.3.0

Video
ID : 1
Format : AVC
Format/Info : Advanced Video Codec
Format profile : High@L4.1
Format settings, CABAC : Yes
Format settings, ReFrames : 12 frames
Codec ID : V_MPEG4/ISO/AVC
Duration : 1 h 33 min
Bit rate : 2 545 kb/s
Width : 1 024 pixels
Height : 550 pixels
Display aspect ratio : 1.85:1
Frame rate mode : Constant
Frame rate : 23.976 (23976/1000) FPS
Color space : YUV
Chroma subsampling : 4:2:0
Bit depth : 8 bits
Scan type : Progressive
Bits/(Pixel*Frame) : 0.188
Stream size : 1.61 GiB (75%)
Title : Enigma
Writing library : x264 core 152 r2851 ba24899
Encoding settings : cabac=1 / ref=12 / deblock=1:-2:-2 / analyse=0x3:0x113 / me=umh / subme=10 / psy=1 / psy_rd=1.00:0.05 / mixed_ref=1 / me_range=32 / chroma_me=1 / trellis=2 / 8x8dct=1 / cqm=0 / deadzone=21,11 / fast_pskip=0 / chroma_qp_offset=-3 / threads=12 / lookahead_threads=2 / sliced_threads=0 / nr=0 / decimate=0 / interlaced=0 / bluray_compat=0 / constrained_intra=0 / bframes=9 / b_pyramid=2 / b_adapt=2 / b_bias=0 / direct=3 / weightb=1 / open_gop=0 / weightp=2 / keyint=240 / keyint_min=23 / scenecut=40 / intra_refresh=0 / rc=2pass / mbtree=0 / bitrate=2545 / ratetol=1.0 / qcomp=0.60 / qpmin=0 / qpmax=51 / qpstep=4 / cplxblur=20.0 / qblur=0.5 / ip_ratio=1.40 / pb_ratio=1.30 / aq=3:0.90
Language : English
Default : Yes
Forced : No
Color range : Limited
Color primaries : BT.709
Transfer characteristics : BT.709
Matrix coefficients : BT.709

Audio #1
ID : 2
Format : AC-3
Format/Info : Audio Coding 3
Mode extension : CM (complete main)
Format settings, Endianness : Big
Codec ID : A_AC3
Duration : 1 h 33 min
Bit rate mode : Constant
Bit rate : 384 kb/s
Channel(s) : 6 channels
Channel positions : Front: L C R, Side: L R, LFE
Sampling rate : 48.0 kHz
Frame rate : 31.250 FPS (1536 spf)
Compression mode : Lossy
Stream size : 256 MiB (12%)
Title : iTunes
Language : Russian
Default : Yes
Forced : No

Audio #2
ID : 3
Format : AC-3
Format/Info : Audio Coding 3
Mode extension : CM (complete main)
Format settings, Endianness : Big
Codec ID : A_AC3
Duration : 1 h 33 min
Bit rate mode : Constant
Bit rate : 384 kb/s
Channel(s) : 6 channels
Channel positions : Front: L C R, Side: L R, LFE
Sampling rate : 48.0 kHz
Frame rate : 31.250 FPS (1536 spf)
Compression mode : Lossy
Stream size : 256 MiB (12%)
Language : English
Default : No
Forced : No

Text #1
ID : 4
Format : UTF-8
Codec ID : S_TEXT/UTF8
Codec ID/Info : UTF-8 Plain Text
Language : Russian
Default : No
Forced : No

Text #2
ID : 5
Format : UTF-8
Codec ID : S_TEXT/UTF8
Codec ID/Info : UTF-8 Plain Text
Language : Ukrainian
Default : No
Forced : No

Text #3
ID : 6
Format : UTF-8
Codec ID : S_TEXT/UTF8
Codec ID/Info : UTF-8 Plain Text
Title : eng1
Language : English
Default : No
Forced : No

Text #4
ID : 7
Format : UTF-8
Codec ID : S_TEXT/UTF8
Codec ID/Info : UTF-8 Plain Text
Title : eng2
Language : English
Default : No
Forced : No

Menu
00:00:00.000 : en:1
00:04:46.578 : en:2
00:08:09.822 : en:3
00:18:35.656 : en:4
00:29:07.954 : en:5
00:38:44.989 : en:6
00:44:57.569 : en:7
00:48:17.518 : en:8
00:49:26.169 : en:9
00:54:40.358 : en:10
01:02:57.104 : en:11
01:05:44.729 : en:12
01:13:15.221 : en:13
01:16:22.032 : en:14
01:17:56.084 : en:15
01:23:21.409 : en:16
Релиз от:

Автор релиза: pb.wtf



Скачать Озеро страха: Наследие через торрент http://i103.fastpic.ru/big/2018/0903/86/eb0bad9d59ea90981e4a540ddd49d586.jpeg Скачать фильм Озеро страха: Наследие через торрент бесплантно в хорошем качестве Описание: Сэм и его друзья Билли, Спенсер, Джейд и Элис – борцы с системой. Они разоблачают происки гигантских корпораций, которые наносят ... 9 10 6
Info! Золотая раздача, скачанное не засчитывается.
Торрент: Зарегистрирован [2018-09-04 00:07] · скачан: 249 раз
Статус: √ проверено
Размер: 2.15 GB
Как cкачать? Как скачать Озеро страха: Наследие через торрент | qTorrent

28-11-2019 20:33  

Отключить всю рекламу на сайте

    Дорогой пользователь! Огромная просьба, поблагодарите релизера, оцените раздачу и оставьте свои комментарий, если Вы скачали Озеро страха: Наследие через торрент бесплатно! Внесите свою лепту в развитие PiratBit!
    Комментировать посты могут только пользователи прошедшие не сложную регистрацию
    Показать сообщения:    

    Озеро страха: Наследие через торрент
    Скачать бесплатно Озеро страха: Наследие
    Озеро страха: Наследие скачать торрент
    Озеро страха: Наследие смотреть онлайн
    Cкачать фильм Озеро страха: Наследие бесплатно
    Озеро страха: Наследие скачать торрент в хорошем качестве
    Озеро страха: Наследие смотреть онлайн бесплатно в хорошем качестве


    Вы не можете начинать темы
    Вы не можете отвечать на сообщения
    Вы не можете редактировать свои сообщения
    Вы не можете удалять свои сообщения
    Вы не можете голосовать в опросах
    Вы не можете прикреплять файлы к сообщениям
    Вы можете скачивать файлы