Ссылка на приватное зеркало нашего сайта всего за 1$. Внимание количество ограничено!!!

2 сезон

iTunes

1 сезон

1

2 сезон

2 сезон

iTunes

1 сезон

RePack

30

Новинка

ВАЖНО

ИГРА 18+

pack

RePack

MK11
pack

Забери бонус

RePack

jed

!!Акция!!

Alien_Rage

RePack

fifa19

RePack

Assassins Creed: Odyssey

RePack

NEED FOR SPEED™ PAYBACK

4 сезон

9 сезон

Бесстыжие 9 сезон

Все сериалы

все сериалы на PB.wtf

RePack

FAR CRY 5
  

В розыске / Сигнал всем постам / A.P.B. / Сезон: 1 / Серии: 1-12 из 12 (Дуан Кларк, Джеффри Дж. Хант, Эми Канаан Манн) [2017, драма, криминал, WEBRip 720p] MVO [Jaskier] pb.wtf

Скачать  

04-09-2018 05:28 В розыске Скачать торрент  

В розыске | A.P.B. Год выпуска: 2017
Страна: США
Жанр: Драма, криминал
Продолжительность: ~ 00:43:00
Перевод: Профессиональный (многоголосый закадровый) | Jaskier
Субтитры: английские

Режиссёр: Дуан Кларк, Джеффри Дж. Хант, Эми Канаан Манн

В ролях:

Джастин Кирк, Натали Мартинес, Кэйтлин Стэйси, Уильям Смайли, Адам Менджеринк, Алекс Зеленка, Ральф Аббас, Дэниэл МакФерсон, Роджер Уиггинс, Дэниэл Крэйг Бэйкер и др.

Описание:

Сериал «A.P.B.» исследует, что происходит, когда сталкиваются два мира – эксцентричного богача и прожжённых профессионалов. Местом действия является проблемный полицейский участок, работой которого не довольны ни начальство копов, ни их контингент. Ситуация принимает другой оборот после смерти на землях, находящихся в юрисдикции участка, человека, очень близкого одному загадочному современному миллиардеру. Богач скупает территорию и фактически становится хозяином полицейского учреждения. Сможет ли эта передовая таинственная и могущественная фигура как-то исправить ветеранов проблемного участка?



Качество: WEBRip 720p
Формат: MKV

Видео: 1280x720 (16:9) | X264/MPEG4-AVC | ~6000 kbps | 23.976 fps
Аудио 1: AC3 | 48 KHz | 5.1 (Front: L С R Side: L R) + LFE | ~384 kbps [RUS]
Аудио 2: AC3 | 48 KHz | 5.1 (Front: L С R Side: L R) + LFE | ~384 kbps [ENG]


Реклама: Присутствует звуковая (два раза в начале и конце по 12 сек.)
Перевод и озвучивание Студия Jaskier
Общее
Уникальный идентификатор                 : 223217652872016587856243930671005523100 (0xA7EE27FB4B7BC74397EC4469A25B5C9C)
Полное имя                               : D:\загрузки\APB (Season 01) Jaskier 720\APB.S01E01.HD720.Rus.Eng.Jaskier.mkv
Формат                                   : Matroska
Версия формата                           : Version 2
Размер файла                             : 2,23 Гбайт
Продолжительность                        : 46 м. 26 с.
Общий поток                              : 6886 Кбит/сек
Дата кодирования                         : UTC 2017-02-21 23:02:28
Программа кодирования                    : mkvmerge v7.8.0 ('River Man') 32bit built on Apr  3 2015 12:11:22
Библиотека кодирования                   : libebml v1.3.1 + libmatroska v1.4.2

Видео
Идентификатор                            : 1
Формат                                   : AVC
Формат/Информация                        : Advanced Video Codec
Профиль формата                          : High@L4.1
Параметр CABAC формата                   : Да
Параметр ReFrames формата                : 4 кадра
Идентификатор кодека                     : V_MPEG4/ISO/AVC
Продолжительность                        : 46 м. 26 с.
Битрейт                                  : 5981 Кбит/сек
Ширина                                   : 1280 пикселей
Высота                                   : 720 пикселей
Соотношение сторон                       : 16:9
Режим частоты кадров                     : Постоянный
Частота кадров                           : 23,976 (24000/1001) кадра/сек
Цветовое пространство                    : YUV
Субдискретизация насыщенности            : 4:2:0
Битовая глубина                          : 8 бит
Тип развёртки                            : Прогрессивная
Бит/(Пиксели*Кадры)                      : 0.271
Размер потока                            : 1,94 Гбайт (87%)
Библиотека кодирования                   : x264 core 148 r2638 7599210
Настройки программы                      : cabac=1 / ref=4 / deblock=1:-3:-3 / analyse=0x3:0x133 / me=umh / subme=10 / psy=1 / psy_rd=1.00:0.00 / mixed_ref=1 / me_range=48 / chroma_me=1 / trellis=2 / 8x8dct=1 / cqm=0 / deadzone=21,11 / fast_pskip=1 / chroma_qp_offset=-2 / threads=22 / lookahead_threads=3 / sliced_threads=0 / nr=0 / decimate=0 / interlaced=0 / bluray_compat=0 / constrained_intra=0 / bframes=8 / b_pyramid=2 / b_adapt=2 / b_bias=0 / direct=3 / weightb=1 / open_gop=0 / weightp=2 / keyint=240 / keyint_min=23 / scenecut=40 / intra_refresh=0 / rc=crf / mbtree=0 / crf=16.0 / qcomp=0.60 / qpmin=0 / qpmax=69 / qpstep=4 / ip_ratio=1.30 / pb_ratio=1.20 / aq=1:0.70
Default                                  : Да
Forced                                   : Нет

Аудио #1
Идентификатор                            : 2
Формат                                   : AC-3
Формат/Информация                        : Audio Coding 3
Расширение режима                        : CM (complete main)
Параметр Endianness формата              : Big
Идентификатор кодека                     : A_AC3
Продолжительность                        : 46 м. 26 с.
Вид битрейта                             : Постоянный
Битрейт                                  : 384 Кбит/сек
Каналы                                   : 6 каналов
Расположение каналов                     : Front: L C R, Side: L R, LFE
Частота                                  : 48,0 КГц
Частота кадров                           : 31,250 кадров/сек (1536 spf)
Битовая глубина                          : 16 бит
Метод сжатия                             : С потерями
Размер потока                            : 128 Мбайт (6%)
Заголовок                                : Jaskier
Язык                                     : Russian
Default                                  : Да
Forced                                   : Нет

Аудио #2
Идентификатор                            : 3
Формат                                   : AC-3
Формат/Информация                        : Audio Coding 3
Расширение режима                        : CM (complete main)
Параметр Endianness формата              : Big
Идентификатор кодека                     : A_AC3
Продолжительность                        : 46 м. 26 с.
Вид битрейта                             : Постоянный
Битрейт                                  : 384 Кбит/сек
Каналы                                   : 6 каналов
Расположение каналов                     : Front: L C R, Side: L R, LFE
Частота                                  : 48,0 КГц
Частота кадров                           : 31,250 кадров/сек (1536 spf)
Битовая глубина                          : 16 бит
Метод сжатия                             : С потерями
Размер потока                            : 128 Мбайт (6%)
Язык                                     : English
Default                                  : Нет
Forced                                   : Нет

Текст
Идентификатор                            : 4
Формат                                   : UTF-8
Идентификатор кодека                     : S_TEXT/UTF8
Идентификатор кодека/Информация          : UTF-8 Plain Text
Язык                                     : English
Default                                  : Нет
Forced                                   : Нет
скриншот  скриншот  скриншот  скриншот  скриншот  
Когда раздача ведётся путём добавления новых серий, при каждом добавлении создётся новый торрент. Чтобы начать докачку новой серии, пользователям необходимо сделать следующее:
(1) остановить скачивание,
(2) удалить старый торрент у себя из клиента (старые серии удалять не надо),
(3) скачать новый торрент и запустить его у себя в клиенте вместо старого, при этом указать клиенту путь в старую папку, куда и должно происходить скачивание новых серий.
Ваш клиент при этом должен произвести хеширование (проверку) старой папки (если не производит сам - помогите ему сделать это), и будет докачивать только те серии, которых у вас ещё нет. Старые серии при этом не удаляются, а продолжают раздаваться!
Eсли вы уже удалили старые серии, то предотвратить повторную закачку старых серий можно, отжав галочку в соответсвующих местах при запуске нового торрента. По возможности, желательно не удалять старые серии как можно дольше, чтобы релизёр не столько продолжал раздавать старые серии, а смог сконцентрироваться на новых.
pb.wtf



Торрент не зареган: Не зарегистрирован ||
Добавлен: 2018-09-04 05:23
Скачано: 0 раз
% Раздел Тема Автор DL S | L
Зарубежные сериалы [ 6.47 GB ] В розыске / Сигнал всем постам / A.P.B. / Сезон 1 / Серии 1-12 из 12 [2017 WEBRip] MVO [FOX] bober100 Скачать
1 | 0
Зарубежные сериалы [ 39.73 GB ] В розыске / Сигнал всем постам / A.P.B. / Сезон 1 / Серии 1-12 из 12 [2017 WEBRip 1080p] [MVO] killermax2013 Скачать
1 | 0
Зарубежные сериалы [ 6.45 GB ] В розыске / Сигнал всем постам / A.P.B. / Сезон 1 / Серии 1-12 из 12 [2017 WEBRip] [MVO] killermax2013 Скачать
1 | 0
Зарубежные сериалы [ 5.89 GB ] В розыске / Сигнал всем постам / A.P.B. / Сезон 1 / Серии 1-11 из 12 [2017 WEB-DLRip] [MVO] killermax2013 Скачать
1 | 0
Зарубежные сериалы [ 16.98 GB ] Сигнал всем постам / В розыске / A.P.B. / Сезон 1 / Серии 1-12 из 12 [2017 WEB-DL 720p] MVO [BaibaKo] Dusster Скачать
1 | 0
Зарубежные сериалы [ 4.52 GB ] В розыске / Сигнал всем постам / A.P.B. / Сезон 1 / Серии 1-9 из 12 [2017 HDTVRip] [MVO] killermax2013 Скачать
1 | 0
Зарубежные сериалы [ 10.01 GB ] Сигнал всем постам / В розыске / A.P.B. / Сезон: 1 / Серии 1-12 из 12 [2017 WEB-DLRip-AVC] MVO [BaibaKo] GEKADOL Скачать
1 | 0

28-11-2019 20:33  

Отключить всю рекламу на сайте

    Дорогой пользователь! Огромная просьба, поблагодарите релизера, оцените раздачу и оставьте свои комментарий, если Вы скачали В розыске через торрент бесплатно! Внесите свою лепту в развитие PiratBit!
    Комментировать посты могут только пользователи прошедшие не сложную регистрацию
    Показать сообщения:    

    В розыске через торрент
    Скачать бесплатно В розыске
    В розыске скачать торрент
    В розыске смотреть онлайн
    Cкачать фильм В розыске бесплатно
    В розыске скачать торрент в хорошем качестве
    В розыске смотреть онлайн бесплатно в хорошем качестве


    Вы не можете начинать темы
    Вы не можете отвечать на сообщения
    Вы не можете редактировать свои сообщения
    Вы не можете удалять свои сообщения
    Вы не можете голосовать в опросах
    Вы не можете прикреплять файлы к сообщениям
    Вы можете скачивать файлы