новый адрес
Ссылка на приватное зеркало всего за 1$. Внимание количество ограничено!!!

iTunes

1+1

iTunes

мы

iTunes

1

iTunes

Чернобыль

iTunes

Ральф против интернета

Лицензия

ПШазам

Лицензия

Оно 2

Лицензия

30
pack

Вам бонус

ВАЖНО

!!Акция!!

Alien_RageХит недели

RePack

Resident Evil 21

ИГРА 18+

pack

RePack

jed

!!Акция!!

Alien_Rage

RePack

fifa19

RePack

Assassins Creed: Odyssey

RePack

NEED FOR SPEED™ PAYBACK

3 сезон

9 сезон

Бесстыжие 9 сезон

Все сериалы

все сериалы на PB.wtf

RePack

FAR CRY 5
Ребята, катастрофически не хватает 1900р. для оплаты серверов за Октябрь (всвязи с блокировками трафик упал в 3 раза), 1-2р., выручайте.
  

Я - возмездие / Vengeance (Росс Бояск) [2018, боевик, WEB-DLRip] MVO [HDrezka Studio] pb.wtf

Я - возмездие через торрент pb.wtf

Размер: 1.36 GB | Добавлен: 1 год 3 мес. назад | Торрент скачан:342 раза
Скачать  

04-09-2018 06:00 Я - возмездие Скачать торрент  

Я - возмездие / Vengeance
Год выпуска: 2018
Страна: Великобритания
Жанр: боевик
Продолжительность: 01:33:26
Перевод: Профессиональный (многоголосый) | HDrezka Studio
Субтитры: английские

Режиссер: Росс Бояск

rating

В ролях:

Гэри Дэниелс, Кит Аллен, Стю Беннет, Анна Шаффер, Брайан Ларкин, Сапфир Элиа, Орион Ли, Дэниэл Иган, Шон Блоуэрс

Описание:

Джон Голд - бывший солдат, а ныне - наёмник, узнаёт о смерти лучшего друга и пытается выяснить, что произошло. В итоге он выясняет, что убийство было частью крупного заговора...

Качество: WEB-DLRip
Формат: AVI

Видео: 720x320 (2.25:1), 23.976 fps, XviD ~1 876 kbps avg
Аудио: 48.0 kHz, AC3 Dolby Digital, 2/0 (L,R) ch, ~192 kbps
скриншот  скриншот  скриншот  

General
Complete name : Vengeance (2018) WEB-DLRip.avi
Format : AVI
Format/Info : Audio Video Interleave
File size : 1.36 GiB
Duration : 1 h 33 min
Overall bit rate : 2 078 kb/s
Writing application : VirtualDubMod 1.5.10.3 | (build 2550/release)
Writing library : VirtualDubMod build 2550/release

Video
ID : 0
Format : MPEG-4 Visual
Format profile : Advanced Simple@L5
Format settings, BVOP : 2
Format settings, QPel : No
Format settings, GMC : No warppoints
Format settings, Matrix : Custom
Codec ID : XVID
Codec ID/Hint : XviD
Duration : 1 h 33 min
Bit rate : 1 876 kb/s
Width : 720 pixels
Height : 320 pixels
Display aspect ratio : 2.25:1
Frame rate : 23.976 (24000/1001) FPS
Original frame rate : 23.976 (23976/1000) FPS
Color space : YUV
Chroma subsampling : 4:2:0
Bit depth : 8 bits
Scan type : Progressive
Compression mode : Lossy
Bits/(Pixel*Frame) : 0.340
Stream size : 1.22 GiB (90%)
Writing library : XviD 1.2.1 (UTC 2008-12-04)

Audio
ID : 1
Format : AC-3
Format/Info : Audio Coding 3
Format settings, Endianness : Big
Codec ID : 2000
Duration : 1 h 33 min
Bit rate mode : Constant
Bit rate : 192 kb/s
Channel(s) : 2 channels
Channel positions : Front: L R
Sampling rate : 48.0 kHz
Frame rate : 31.250 FPS (1536 SPF)
Bit depth : 16 bits
Compression mode : Lossy
Stream size : 128 MiB (9%)
Alignment : Split accross interleaves
Interleave, duration : 42 ms (1.00 video frame)
Interleave, preload duration : 500 ms
Service kind : Complete Main

pb.wtf



Скачать Я - возмездие через торрент http://a.radikal.ru/a33/1809/ed/da332b74931c.jpg Скачать фильм Я - возмездие через торрент бесплантно в хорошем качестве Описание: Джон Голд - бывший солдат, а ныне - наёмник, узнаёт о смерти лучшего друга и пытается выяснить, что произошло. В итоге он ... 8.9 10 8
Торрент: Зарегистрирован [2018-09-04 06:00] · скачан: 342 раз
Статус: T временная
Размер: 1.36 GB
Как cкачать? Как скачать Я - возмездие через торрент | qTorrent

% Раздел Тема Автор DL S | L
T Фильмы (WEB-DL 720p, 1080p) [ 3.36 GB ] Я - возмездие / Vengeance [2018 WEB-DL 1080p] MVO [HDrezka Studio] bober100 Скачать
1 | 0

28-11-2019 20:33  

Отключить всю рекламу на сайте

04-09-2018 11:44 Я - возмездие Скачать торрент  

О, "старик" Гэри, сто лет его фильмы не видел, хороший актер- для тех кто в теме 90-х. Забираю.pb.wtf



04-09-2018 17:49 Я - возмездие Скачать торрент  

meridianov писал(а):

О, "старик" Гэри, сто лет его фильмы не видел, хороший актер- для тех кто в теме 90-х. Забираю.

Я пожалуй тоже гляну
Автору раздачи спасибо!pb.wtf



    Дорогой пользователь! Огромная просьба, поблагодарите релизера, оцените раздачу и оставьте свои комментарий, если Вы скачали Я - возмездие через торрент бесплатно! Внесите свою лепту в развитие PiratBit!
    Комментировать посты могут только пользователи прошедшие не сложную регистрацию
    Показать сообщения:    

    Я - возмездие через торрент
    Скачать бесплатно Я - возмездие
    Я - возмездие скачать торрент
    Я - возмездие смотреть онлайн
    Cкачать фильм Я - возмездие бесплатно
    Я - возмездие скачать торрент в хорошем качестве
    Я - возмездие смотреть онлайн бесплатно в хорошем качестве


    Вы не можете начинать темы
    Вы не можете отвечать на сообщения
    Вы не можете редактировать свои сообщения
    Вы не можете удалять свои сообщения
    Вы не можете голосовать в опросах
    Вы не можете прикреплять файлы к сообщениям
    Вы можете скачивать файлы