Ссылка на приватное зеркало всего за 1$. Внимание количество ограничено!!!

OK

1+1

iTunes

мы

OK

1

WEB-DLRip

Джокер

Пифагор

Ведьмак / The Witcher сериал

Лицензия

ПШазам

ОК

Оно 2

iTunes

30
pack

Вам бонус

ВАЖНО

!!Акция!!

Alien_RageХит недели

RePack

Resident Evil 21

ИГРА 18+

pack

RePack

jed

!!Акция!!

Alien_Rage

RePack

fifa19

RePack

Assassins Creed: Odyssey

RePack

NEED FOR SPEED™ PAYBACK

4 сезон

9 сезон

Бесстыжие 9 сезон

Все сериалы

все сериалы на PB.wtf

RePack

FAR CRY 5
  

Нахаленок (Евгений Карелов) [1961, СССР, детский, SATRip от AVP Studio] pb.wtf

Нахаленок через торрент pb.wtf

Размер: 744 MB | Добавлен: 1 год 4 мес. назад | Торрент скачан:13 раз
Скачать  

04-09-2018 09:36 Нахаленок Скачать торрент  

Нахаленок
Страна: СССР
Производство: Мосфильм

Жанр: детский
Год выпуска: 1961
Продолжительность: 00:53:52

Перевод: Не требуется
Cубтитры: нет
Оригинальная аудиодорожка: русский

Режиссер: Евгений Карелов

В ролях:
Владимир Семёнов, Даниил Нетребин, Вера Бурлакова, Даниил Ильченко, Пётр Савин, Владимир Гусев, Виктор Колпаков, Владимир Пицек, Эмма Цесарская, Игорь Савельев...
Об актёрах подробней

Описание:
Телефильм по мотивам "Донских рассказов" М.Шолохова.
Большевик Фома Коршунов возвращается в станицу. Вскоре у семилетнего Мишки появляется новое прозвище "Коммуненок". Когда в станицу врываются бандиты и убивают Фому Коршунова, Мишка, зная, что красные недалеко, с помощью деда седлает коня и спешит предупредить их об опасности...

Источник: DVB
Качество видео: SATRip
Формат видео: AVI

Видео: 704х528 (4:3), 25 fps, XviD ~ 1730 kbps avg, 0.186 bit/pixel
Аудио: 48 kHz, Dolby Digital AC3 2.0, 192 kbps

Раздача от:
Общее
Полное имя : Nahalyonok.1961.SATRip_[New-team]_by_AVP_Studio.avi
Формат : AVI
Формат/Информация : Audio Video Interleave
Размер файла : 744 Мбайт
Продолжительность : 53 м. 51 с.
Общий поток : 1932 Кбит/сек
Программа кодирования : VirtualDubMod 1.5.10.3 | www.virtualdub-fr.org || (build 2550/release)
Библиотека кодирования : VirtualDubMod build 2550/release

Видео
Идентификатор : 0
Формат : MPEG-4 Visual
Профиль формата : Advanced Simple@L5
Настройки формата : BVOP1 / Custom Matrix
Параметр BVOP формата : 1
Параметр QPel формата : Нет
Параметр GMC формата : Без точки перехода
Параметр матрицы формата : Выборочная
Идентификатор кодека : XVID
Идентификатор кодека/Подсказка : XviD
Продолжительность : 53 м. 51 с.
Битрейт : 1730 Кбит/сек
Ширина : 704 пикселя
Высота : 528 пикселей
Соотношение сторон : 4:3
Частота кадров : 25,000 кадров/сек
Цветовое пространство : YUV
Субдискретизация насыщенности : 4:2:0
Битовая глубина : 8 бит
Тип развёртки : Прогрессивная
Метод сжатия : С потерями
Бит/(Пиксели*Кадры) : 0.186
Размер потока : 667 Мбайт (90%)
Библиотека кодирования : XviD 73

Аудио
Идентификатор : 1
Формат : AC-3
Формат/Информация : Audio Coding 3
Идентификатор кодека : 2000
Продолжительность : 53 м. 51 с.
Вид битрейта : Постоянный
Битрейт : 192 Кбит/сек
Каналы : 2 канала
Расположение каналов : Front: L R
Частота : 48,0 КГц
Частота кадров : 31,250 кадров/сек (1536 SPF)
Битовая глубина : 16 бит
Метод сжатия : С потерями
Размер потока : 74,0 Мбайт (10%)
Выравнивание : Разделение по промежуткам
Продолжительность промежутка : 40 мс. (1,00 видеокадр)
Время предзагрузки промежутка : 500 мс
pb.wtf



Скачать Нахаленок через торрент http://picplus.ru/img/1809/04/99af4a24.png Скачать фильм Нахаленок через торрент бесплантно в хорошем качестве Описание:Телефильм по мотивам "Донских рассказов" М.Шолохова.Большевик Фома Коршунов возвращается в станицу. Вскоре у семилетнего Мишки ... 5 10 1
Info! Золотая раздача, скачанное не засчитывается.
Торрент: Зарегистрирован [2018-09-04 09:36] · скачан: 13 раз
Статус: √ проверено
Размер: 744 MB
Как cкачать? Как скачать Нахаленок через торрент | qTorrent

% Раздел Тема Автор DL S | L
Детские отечественные фильмы [ 745 MB ] Нахаленок [1961 СССР детский SATRip-AVC от AVP Studio] AVP Studio Скачать
1 | 0
Кино СССР [ 736 MB ] Нахаленок [1961 Детский DVDRip] DJERG Скачать
1 | 0

28-11-2019 20:33  

Отключить всю рекламу на сайте

04-09-2018 11:41 Нахаленок Скачать торрент  

Топик был перенесен из форума Кино СССР в форум Детские отечественные фильмы


bober100pb.wtf



    Дорогой пользователь! Огромная просьба, поблагодарите релизера, оцените раздачу и оставьте свои комментарий, если Вы скачали Нахаленок через торрент бесплатно! Внесите свою лепту в развитие PiratBit!
    Комментировать посты могут только пользователи прошедшие не сложную регистрацию
    Показать сообщения:    

    Нахаленок через торрент
    Скачать бесплатно Нахаленок
    Нахаленок скачать торрент
    Нахаленок смотреть онлайн
    Cкачать фильм Нахаленок бесплатно
    Нахаленок скачать торрент в хорошем качестве
    Нахаленок смотреть онлайн бесплатно в хорошем качестве


    Вы не можете начинать темы
    Вы не можете отвечать на сообщения
    Вы не можете редактировать свои сообщения
    Вы не можете удалять свои сообщения
    Вы не можете голосовать в опросах
    Вы не можете прикреплять файлы к сообщениям
    Вы можете скачивать файлы