Ссылка на приватное зеркало всего за 1$. Внимание количество ограничено!!!

iTunes

1+1

iTunes

мы

WEB-DL

1

iTunes

Чернобыль

iTunes

Ральф против интернета

Лицензия

ПШазам

Лицензия

Оно 2

Лицензия

30
pack

Вам бонус

ВАЖНО

!!Акция!!

Alien_RageХит недели

RePack

Resident Evil 21

ИГРА 18+

pack

RePack

jed

!!Акция!!

Alien_Rage

RePack

fifa19

RePack

Assassins Creed: Odyssey

RePack

NEED FOR SPEED™ PAYBACK

3 сезон

9 сезон

Бесстыжие 9 сезон

Все сериалы

все сериалы на PB.wtf

RePack

FAR CRY 5
Ребята, катастрофически не хватает 1900р. для оплаты серверов за Октябрь (всвязи с блокировками трафик упал в 3 раза), 1-2р., выручайте.
  

На грани безумия / Spinning Man (Симон Кайзер) [2018, триллер, драма, детектив, BDRip-AVC] DUB [iTunes] pb.wtf

На грани безумия через торрент pb.wtf

Раздают: 1 [ 0 KB/s ]
Размер: 2.17 GB | Добавлен: 1 год 3 мес. назад | Торрент скачан:864 раза
Скачать  

04-09-2018 11:26 На грани безумия Скачать торрент  

На грани безумия / Spinning Man
Год выпуска: 2018
Страна: Швеция, США
Жанр: триллер, драма, детектив
Продолжительность: 01:40:36
Перевод: Дублированный | iTunes
Субтитры: английские

Режиссер: Симон Кайзер

rating

В ролях:

Одейя Раш, Пирс Броснан, Гай Пирс, Минни Драйвер, Александра Шипп, Кларк Грегг, Джейми Кеннеди, Стерлинг Бомон, Фрея Тингли, Карло Рота

Описание:

Респектабельная жизнь профессора философии Эвана Берча начинает рушиться по мере того, как появляются подробности о его неподобающем поведении со студентками. В довершении ко всему герой становится центральным подозреваемым в деле об убийстве одной из слушательниц его курса.

Качество: BDRip-AVC
Формат: MKV

Видео: MPEG-4 AVC, 1024x428, 2070 kbps, 23,976 fps
Аудио#1: русский, AC3, 5.1 ch, 48 kHz, 384 kbps | iTunes
Аудио#2: английский, AC3, 5.1 ch, 48 kHz, 640 kbps | оригинал
скриншот   скриншот   скриншот   скриншот   скриншот  

General
Уникальный идентификатор : 174687876740169411751831318943087957221 (0x836BA94938E12119B32AE917FC0B94E5)
Полное имя : F:TorrentNaGraniBezumijaBDRipAVC.mkv
Формат : Matroska
Версия формата : Version 4 / Version 2
Размер файла : 2.17 GiB
Продолжительность : 1 h 40 min
Общий поток : 3 095 kb/s
Дата кодирования : UTC 2018-09-04 09:06:36
Программа кодирования : mkvmerge v9.5.0 ('Quiet Fire') 64bit
Библиотека кодирования : libebml v1.3.4 + libmatroska v1.4.5

Video
Идентификатор : 1
Формат : AVC
Формат/Информация : Advanced Video Codec
Профиль формата : High@L4.1
Настройки формата : CABAC / 10 Ref Frames
Параметр CABAC формата : Yes
Параметр RefFrames формата : 10 frames
Идентификатор кодека : V_MPEG4/ISO/AVC
Продолжительность : 1 h 40 min
Битрейт : 2 070 kb/s
Ширина : 1 024 pixels
Высота : 428 pixels
Соотношение сторон : 2.40:1
Режим частоты кадров : Constant
Частота кадров : 23.976 (24000/1001) FPS
Цветовое пространство : YUV
Субдискретизация насыщенности : 4:2:0
Битовая глубина : 8 bits
Тип развёртки : Progressive
Бит/(Пиксели*Кадры) : 0.197
Размер потока : 1.45 GiB (67%)
Библиотека кодирования : x264 core 155 r2901M 7d0ff22
Настройки программы : cabac=1 / ref=10 / deblock=1:-3:-3 / analyse=0x3:0x133 / me=umh / subme=11 / psy=1 / psy_rd=1.00:0.00 / mixed_ref=1 / me_range=32 / chroma_me=1 / trellis=2 / 8x8dct=1 / cqm=0 / deadzone=21,11 / fast_pskip=0 / chroma_qp_offset=-2 / threads=5 / lookahead_threads=1 / sliced_threads=0 / nr=0 / decimate=0 / interlaced=0 / bluray_compat=0 / constrained_intra=0 / bframes=10 / b_pyramid=2 / b_adapt=2 / b_bias=0 / direct=3 / weightb=1 / open_gop=0 / weightp=2 / keyint=240 / keyint_min=24 / scenecut=40 / intra_refresh=0 / rc_lookahead=120 / rc=2pass / mbtree=0 / bitrate=2070 / ratetol=1.0 / qcomp=0.70 / qpmin=0 / qpmax=69 / qpstep=4 / cplxblur=20.0 / qblur=0.5 / vbv_maxrate=62500 / vbv_bufsize=78125 / nal_hrd=none / filler=0 / ip_ratio=1.40 / pb_ratio=1.30 / aq=1:1.00
Язык : English
Default : Yes
Forced : No

Audio #1
Идентификатор : 2
Формат : AC-3
Формат/Информация : Audio Coding 3
Идентификатор кодека : A_AC3
Продолжительность : 1 h 40 min
Вид битрейта : Constant
Битрейт : 384 kb/s
Каналы : 6 channels
Расположение каналов : Front: L C R, Side: L R, LFE
Частота : 48.0 kHz
Частота кадров : 31.250 FPS (1536 SPF)
Битовая глубина : 16 bits
Метод сжатия : Lossy
Размер потока : 276 MiB (12%)
Язык : Russian
Default : Yes
Forced : No

Audio #2
Идентификатор : 3
Формат : AC-3
Формат/Информация : Audio Coding 3
Идентификатор кодека : A_AC3
Продолжительность : 1 h 40 min
Вид битрейта : Constant
Битрейт : 640 kb/s
Каналы : 6 channels
Расположение каналов : Front: L C R, Side: L R, LFE
Частота : 48.0 kHz
Частота кадров : 31.250 FPS (1536 SPF)
Битовая глубина : 16 bits
Метод сжатия : Lossy
Размер потока : 461 MiB (21%)
Язык : English
Default : No
Forced : No

Text
Идентификатор : 4
Формат : UTF-8
Идентификатор кодека : S_TEXT/UTF8
Идентификатор кодека/Информация : UTF-8 Plain Text
Продолжительность : 1 h 36 min
Битрейт : 67 b/s
ElementCount : 1579
Размер потока : 48.1 KiB (0%)
Язык : English
Default : No
Forced : No

Menu
00:00:00.000 : :Chapter 01
00:06:58.251 : :Chapter 02
00:11:58.426 : :Chapter 03
00:19:37.718 : :Chapter 04
00:25:02.292 : :Chapter 05
00:30:23.738 : :Chapter 06
00:37:14.523 : :Chapter 07
00:43:05.124 : :Chapter 08
00:49:24.169 : :Chapter 09
00:56:05.653 : :Chapter 10
01:03:32.892 : :Chapter 11
01:09:20.823 : :Chapter 12
01:15:05.375 : :Chapter 13
01:21:58.246 : :Chapter 14
01:30:54.490 : :Chapter 15
01:34:24.533 : :Chapter 16

pb.wtf



Скачать На грани безумия через торрент http://i100.fastpic.ru/big/2018/0905/7a/53be0e63fa1d7b093b3b1879e60bf17a.jpg Скачать фильм На грани безумия через торрент бесплантно в хорошем качестве Описание: Респектабельная жизнь профессора философии Эвана Берча начинает рушиться по мере того, как появляются подробности о его ... 8.9 10 16
Info! Золотая раздача, скачанное не засчитывается.
Торрент: Зарегистрирован [2018-09-04 11:26] · скачан: 864 раз
Статус: √ проверено
Размер: 2.17 GB
Как cкачать? Как скачать На грани безумия через торрент | qTorrent

% Раздел Тема Автор DL S | L
Фильмы [HD 720p, 1080p] (Хороший звук DUB, MVO) [ 4.31 GB ] На грани безумия / Spinning Man [2018 BDRip 1080p HEVC ()] Мичман37 Скачать
2 | 0
Фильмы 2018 [DVDrip, WEB-DLRip, HDrip] (DUB, MVO) [ 1.41 GB ] На грани безумия / Spinning Man [2018 BDRip] - Twi7ter Скачать
2 | 0
Фильмы [HD 720p, 1080p] (Хороший звук DUB, MVO) [ 7.74 GB ] На грани безумия / Spinning Man [2018 BDRip 1080p] bober100 Скачать
1 | 0
Фильмы 2018 [DVDrip, WEB-DLRip, HDrip] (DUB, MVO) [ 1.42 GB ] На грани безумия / Spinning Man [2018 BDRip] bober100 Скачать
3 | 0
Фильмы [HD 720p, 1080p] (Хороший звук DUB, MVO) [ 4.23 GB ] На грани безумия / Spinning Man [2018 BDRip 720p] bober100 Скачать
3 | 0
Фильмы (Blu-ray, BD-Remux, HDDVD) [ 16.6 GB ] На грани безумия / Spinning Man [2018 BD Remux 1080p] bober100 Скачать
1 | 0

28-11-2019 20:33  

Отключить всю рекламу на сайте

05-09-2018 11:11 На грани безумия Скачать торрент  

хороший фильм, понравилсяpb.wtf



    Дорогой пользователь! Огромная просьба, поблагодарите релизера, оцените раздачу и оставьте свои комментарий, если Вы скачали На грани безумия через торрент бесплатно! Внесите свою лепту в развитие PiratBit!
    Комментировать посты могут только пользователи прошедшие не сложную регистрацию
    Показать сообщения:    

    На грани безумия через торрент
    Скачать бесплатно На грани безумия
    На грани безумия скачать торрент
    На грани безумия смотреть онлайн
    Cкачать фильм На грани безумия бесплатно
    На грани безумия скачать торрент в хорошем качестве
    На грани безумия смотреть онлайн бесплатно в хорошем качестве


    Вы не можете начинать темы
    Вы не можете отвечать на сообщения
    Вы не можете редактировать свои сообщения
    Вы не можете удалять свои сообщения
    Вы не можете голосовать в опросах
    Вы не можете прикреплять файлы к сообщениям
    Вы можете скачивать файлы