Ссылка на приватное зеркало нашего сайта всего за 1$. Внимание количество ограничено!!!

2 сезон

iTunes

1 сезон

1

2 сезон

2 сезон

iTunes

1 сезон

RePack

30

Ultimate

ВАЖНО

ИГРА 18+

pack

RePack

MK11
pack

Забери бонус

RePack

jed

!!Акция!!

Alien_Rage

RePack

fifa19

RePack

Assassins Creed: Odyssey

RePack

NEED FOR SPEED™ PAYBACK

4 сезон

9 сезон

Бесстыжие 9 сезон

Все сериалы

все сериалы на PB.wtf

RePack

FAR CRY 5
  

ОА / The OA / Сезон: 1 / Серии: 1-8 из 8 (Зал Батманглидж, Брит Марлинг) [2016, фантастика, мистика, триллер, детектив, UHD WEBRip 2160p] [HDR] MVO [LostFilm] pb.wtf

ОА через торрент pb.wtf

Размер: 63.21 GB | Добавлен: 2 года 2 мес. назад | Торрент скачан:14 раз
Скачать  

04-09-2018 11:34 ОА Скачать торрент  

ОА / The OA
«Доверие неведомо»
Год выпуска: 2016
Страна: США
Жанр: фантастика, мистика, триллер, драма, детектив
Продолжительность: 8 х ~ 01:00:00
Перевод: Профессиональный многоголосый |
Субтитры: Английские, итальянские, португальские, польские, шведские, финские, норвежские, датские, румынские, греческие, немецкие, испанские, французские, голландские

Режиссер: Зал Батманглидж, Брит Марлинг

rating

В ролях:

Брит Марлинг, Иэн Александр, Уилл Брилл, Эмори Коэн, Патрик Гибсон, Брендан Мейер, Брэндон Переа, Скотт Уилсон, Роберт Эли, Маркус Чои и др.

Описание:

После семи лет отсутствия Прэйри Джонсон возвращается к своим приемным родителям, которые помнят ее слепой. Теперь она может видеть, но это не единственная странность, удивившая маму и папу Прэйри. По возвращении девушка заявила, что ее зовут ОА и стала говорить загадками, в том числе с недоумевающими следователями. В частности, ОА сообщила, что там, где она пропадала все эти годы, находилось несколько человек, все они были потеряны и умирали бессчетное количество раз. Девушка постоянно записывает на камеру загадочные послания некоему Гомеру, в которых говорит, что ужасно скучает и непременно придет за ним. Чтобы убедиться в его реальности, Прэйри нужен Wi-Fi, но дома Интернет под запретом. Джонсон обращается за помощью к старшекласснику и, помимо этого, просит его собрать пять сильных и гибких незнакомцев в полночь в заброшенном доме. Эти люди пока не подозревают, что в ближайшую встречу им предстоит оказаться в России 1987 года, увидеть сугробы высотой в два метра, разноцветные купола Храма Василия Блаженного и серые воды Москвы-реки. И тогда они узнают, из-за чего ослепла Прэйри, которую когда-то звали Ниной, и поймут, что единственный способ победить холод — стать холоднее, чем лед.

Качество: UHD WEBRip 2160p | HDR
Формат: MKV

Видео: HEVC HDR, ~ 18.7 - 21.9 Mбит/с, 3840x2160, 23.976 кадр/с
Аудио#1: Русский (AC3, 2 ch, 384 Кбит/с) / Профессиональный многоголосый (LostFilm)
Аудио#2: Английский (E-AC3, 6 ch, 640 Кбит/с)
скриншот  скриншот  скриншот  скриншот  скриншот  

General
Unique ID : 253839891632244815075238020849375866167 (0xBEF7C8EB1B826E1CC970E6024DDB6D37)
Complete name : D:uTorrentThe.OA.S01.2016.WEBRip.2160p.HDR.MediaClubThe.OA.S01E02.2016.2160p.HDR.Netflix.WEBRip.MediaClub.mkv
Format : Matroska
Format version : Version 4 / Version 2
File size : 8.47 GiB
Duration : 58 min 38 s
Overall bit rate : 20.7 Mb/s
Encoded date : UTC 2018-08-17 09:29:25
Writing application : mkvmerge v25.0.0 ('Prog Noir') 64-bit
Writing library : libebml v1.3.6 + libmatroska v1.4.9
Cover : Yes
Attachments : cover.jpg

Video
ID : 1
Format : HEVC
Format/Info : High Efficiency Video Coding
Commercial name : HDR10
Format profile : Main 10@L5@Main
Codec ID : V_MPEGH/ISO/HEVC
Duration : 57 min 39 s
Bit rate : 20.0 Mb/s
Width : 3 840 pixels
Height : 2 160 pixels
Display aspect ratio : 16:9
Frame rate mode : Constant
Frame rate : 23.976 (24000/1001) FPS
Color space : YUV
Chroma subsampling : 4:2:0
Bit depth : 10 bits
Bits/(Pixel*Frame) : 0.100
Stream size : 8.05 GiB (95%)
Title : WEBRip.2160p.HDR by Silverok
Writing library : x265 2.8+24-289b8a3730ae:[Windows][MSVC 1914][64 bit] 10bit
Encoding settings : cpuid=1111039 / frame-threads=4 / numa-pools=28,0 / wpp / no-pmode / no-pme / no-psnr / no-ssim / log-level=2 / input-csp=1 / input-res=3840x2160 / interlace=0 / total-frames=0 / level-idc=0 / high-tier=1 / uhd-bd=0 / ref=5 / no-allow-non-conformance / repeat-headers / annexb / no-aud / no-hrd / info / hash=0 / no-temporal-layers / open-gop / min-keyint=23 / keyint=250 / gop-lookahead=0 / bframes=8 / b-adapt=2 / b-pyramid / bframe-bias=0 / rc-lookahead=40 / lookahead-slices=0 / scenecut=40 / radl=0 / no-intra-refresh / ctu=64 / min-cu-size=8 / no-rect / no-amp / max-tu-size=32 / tu-inter-depth=3 / tu-intra-depth=3 / limit-tu=4 / rdoq-level=2 / dynamic-rd=0.00 / no-ssim-rd / signhide / no-tskip / nr-intra=0 / nr-inter=0 / no-constrained-intra / strong-intra-smoothing / max-merge=4 / limit-refs=1 / limit-modes / me=3 / subme=4 / merange=57 / temporal-mvp / weightp / weightb / no-analyze-src-pics / deblock=0:0 / sao / no-sao-non-deblock / rd=6 / no-early-skip / rskip / no-fast-intra / no-tskip-fast / no-cu-lossless / b-intra / no-splitrd-skip / rdpenalty=0 / psy-rd=2.00 / psy-rdoq=1.00 / no-rd-refine / no-lossless / cbqpoffs=0 / crqpoffs=0 / rc=crf / crf=16.0 / qcomp=0.60 / qpstep=4 / stats-write=0 / stats-read=0 / ipratio=1.40 / pbratio=1.30 / aq-mode=1 / aq-strength=1.00 / cutree / zone-count=0 / no-strict-cbr / qg-size=32 / no-rc-grain / qpmax=69 / qpmin=0 / no-const-vbv / sar=0 / overscan=0 / videoformat=5 / range=0 / colorprim=9 / transfer=16 / colormatrix=9 / chromaloc=0 / display-window=0 / master-display=G(13250,34500)B(7500,3000)R(34000,16000)WP(15635,16450)L(40000000,50) / max-cll=1429,280 / min-luma=0 / max-luma=1023 / log2-max-poc-lsb=8 / vui-timing-info / vui-hrd-info / slices=1 / no-opt-qp-pps / no-opt-ref-list-length-pps / no-multi-pass-opt-rps / scenecut-bias=0.05 / no-opt-cu-delta-qp / no-aq-motion / hdr / hdr-opt / no-dhdr10-opt / no-idr-recovery-sei / analysis-reuse-level=5 / scale-factor=0 / refine-intra=0 / refine-inter=0 / refine-mv=0 / limit-sao / ctu-info=0 / no-lowpass-dct / refine-mv-type=0 / copy-pic=1 / max-ausize-factor=1.0 / no-dynamic-refine / no-single-sei
Default : Yes
Forced : No
Color range : Limited
Color primaries : BT.2020
Transfer characteristics : PQ
Matrix coefficients : BT.2020 non-constant
Mastering display color primaries : Display P3
Mastering display luminance : min: 0.0050 cd/m2, max: 4000 cd/m2
Maximum Content Light Level : 1429 cd/m2
Maximum Frame-Average Light Level : 280 cd/m2

Audio #1
ID : 2
Format : AC-3
Format/Info : Audio Coding 3
Codec ID : A_AC3
Duration : 57 min 55 s
Bit rate mode : Constant
Bit rate : 384 kb/s
Channel(s) : 2 channels
Channel positions : Front: L R
Sampling rate : 48.0 kHz
Frame rate : 31.250 FPS (1536 SPF)
Bit depth : 16 bits
Compression mode : Lossy
Stream size : 159 MiB (2%)
Title : Профессиональный многоголосый (LostFilm)
Language : Russian
Service kind : Complete Main
Default : Yes
Forced : No

Audio #2
ID : 3
Format : E-AC-3
Format/Info : Enhanced Audio Coding 3
Codec ID : A_EAC3
Duration : 58 min 38 s
Bit rate mode : Constant
Bit rate : 640 kb/s
Channel(s) : 6 channels
Channel positions : Front: L C R, Side: L R, LFE
Sampling rate : 48.0 kHz
Frame rate : 187.500 FPS (256 SPF)
Compression mode : Lossy
Stream size : 268 MiB (3%)
Language : English
Service kind : Complete Main
Default : No
Forced : No

Text #1
ID : 4
Format : UTF-8
Codec ID : S_TEXT/UTF8
Codec ID/Info : UTF-8 Plain Text
Duration : 3 min 27 s
Bit rate : 31 b/s
Count of elements : 24
Stream size : 827 Bytes (0%)
Title : Forced
Language : English
Default : Yes
Forced : No

Text #2
ID : 5
Format : UTF-8
Codec ID : S_TEXT/UTF8
Codec ID/Info : UTF-8 Plain Text
Duration : 54 min 4 s
Bit rate : 68 b/s
Count of elements : 826
Stream size : 26.9 KiB (0%)
Title : Full
Language : English
Default : No
Forced : No

Text #3
ID : 6
Format : UTF-8
Codec ID : S_TEXT/UTF8
Codec ID/Info : UTF-8 Plain Text
Duration : 57 min 28 s
Bit rate : 51 b/s
Count of elements : 668
Stream size : 21.7 KiB (0%)
Language : Italian
Default : No
Forced : No

Text #4
ID : 7
Format : UTF-8
Codec ID : S_TEXT/UTF8
Codec ID/Info : UTF-8 Plain Text
Duration : 57 min 29 s
Bit rate : 54 b/s
Count of elements : 666
Stream size : 22.9 KiB (0%)
Language : Portuguese
Default : No
Forced : No

Text #5
ID : 8
Format : UTF-8
Codec ID : S_TEXT/UTF8
Codec ID/Info : UTF-8 Plain Text
Duration : 57 min 28 s
Bit rate : 46 b/s
Count of elements : 672
Stream size : 19.7 KiB (0%)
Language : Polish
Default : No
Forced : No

Text #6
ID : 9
Format : UTF-8
Codec ID : S_TEXT/UTF8
Codec ID/Info : UTF-8 Plain Text
Duration : 57 min 28 s
Bit rate : 49 b/s
Count of elements : 647
Stream size : 20.8 KiB (0%)
Language : Swedish
Default : No
Forced : No

Text #7
ID : 10
Format : UTF-8
Codec ID : S_TEXT/UTF8
Codec ID/Info : UTF-8 Plain Text
Duration : 57 min 14 s
Bit rate : 46 b/s
Count of elements : 567
Stream size : 19.3 KiB (0%)
Language : Finnish
Default : No
Forced : No

Text #8
ID : 11
Format : UTF-8
Codec ID : S_TEXT/UTF8
Codec ID/Info : UTF-8 Plain Text
Duration : 57 min 14 s
Bit rate : 51 b/s
Count of elements : 658
Stream size : 21.4 KiB (0%)
Language : Norwegian
Default : No
Forced : No

Text #9
ID : 12
Format : UTF-8
Codec ID : S_TEXT/UTF8
Codec ID/Info : UTF-8 Plain Text
Duration : 57 min 28 s
Bit rate : 50 b/s
Count of elements : 654
Stream size : 21.4 KiB (0%)
Language : Danish
Default : No
Forced : No

Text #10
ID : 13
Format : UTF-8
Codec ID : S_TEXT/UTF8
Codec ID/Info : UTF-8 Plain Text
Duration : 57 min 28 s
Bit rate : 49 b/s
Count of elements : 682
Stream size : 20.8 KiB (0%)
Language : Romanian
Default : No
Forced : No

Text #11
ID : 14
Format : UTF-8
Codec ID : S_TEXT/UTF8
Codec ID/Info : UTF-8 Plain Text
Duration : 57 min 28 s
Bit rate : 88 b/s
Count of elements : 683
Stream size : 37.4 KiB (0%)
Language : Greek
Default : No
Forced : No

Text #12
ID : 15
Format : UTF-8
Codec ID : S_TEXT/UTF8
Codec ID/Info : UTF-8 Plain Text
Duration : 57 min 14 s
Bit rate : 54 b/s
Count of elements : 644
Stream size : 22.7 KiB (0%)
Language : German
Default : No
Forced : No

Text #13
ID : 16
Format : UTF-8
Codec ID : S_TEXT/UTF8
Codec ID/Info : UTF-8 Plain Text
Duration : 57 min 28 s
Bit rate : 50 b/s
Count of elements : 680
Stream size : 21.1 KiB (0%)
Language : Spanish
Default : No
Forced : No

Text #14
ID : 17
Format : UTF-8
Codec ID : S_TEXT/UTF8
Codec ID/Info : UTF-8 Plain Text
Duration : 57 min 29 s
Bit rate : 55 b/s
Count of elements : 673
Stream size : 23.5 KiB (0%)
Language : French
Default : No
Forced : No

Text #15
ID : 18
Format : UTF-8
Codec ID : S_TEXT/UTF8
Codec ID/Info : UTF-8 Plain Text
Duration : 57 min 14 s
Bit rate : 46 b/s
Count of elements : 542
Stream size : 19.7 KiB (0%)
Language : Dutch
Default : No
Forced : No

pb.wtf



Скачать ОА через торрент http://rudb.org/img/2017_05/30/59dd5b8c-115c-478e-b0c1-feb958d80d12.jpg Скачать фильм ОА через торрент бесплантно в хорошем качестве Описание: После семи лет отсутствия Прэйри Джонсон возвращается к своим приемным родителям, которые помнят ее слепой. Теперь она может ... 10 10 3
Торрент: Зарегистрирован [2018-09-04 11:34] · скачан: 14 раз
Статус: √ проверено
Размер: 63.21 GB
Как cкачать? Как скачать ОА через торрент | qTorrent

% Раздел Тема Автор DL S | L
Зарубежные сериалы [ 5.02 GB ] ОА / The OA / Сезон: 2 / Серии 1-8 из 8 [2019 WEBRip] [MVO] killermax2013 Скачать
1 | 0
Зарубежные сериалы [ 67.97 GB ] ОА / The OA / Сезон: 2 / Серии: 1-8 из 8 [2019 UHD WEBRip 2160p] MVO [LostFilm] sheker187 Скачать
1 | 0
Зарубежные сериалы [ 20.55 GB ] ОА / The OA / Сезон: 2 / Серии 1-8 из 8 [2019 WEBRip 1080p] [MVO] killermax2013 Скачать
1 | 0
Зарубежные сериалы [ 7.7 GB ] ОА / The OA / Сезон: 2 / Серии 1-8 из 8 [2019 WEBRip 720p] [MVO] killermax2013 Скачать
1 | 0
Зарубежные сериалы [ 7.57 GB ] ОА / The OA / Сезон: 2 / Серии: 1-8 из 8 [2019 WEBRip 720p] MVO [Baibako] bober100 Скачать
1 | 0
Зарубежные сериалы [ 8.29 GB ] ОА / The OA / Сезон: 2 / Серии: 1-8 из 8 [2019 WEBRip 720p] [DVO] killermax2013 Скачать
1 | 0
Зарубежные сериалы [ 12.96 GB ] ОА / The OA / Сезон 1 / 1-8 серии из 8 [2016 WEBRip 720p] [MVO] killermax2013 Скачать
1 | 0

28-11-2019 20:33  

Отключить всю рекламу на сайте

    Дорогой пользователь! Огромная просьба, поблагодарите релизера, оцените раздачу и оставьте свои комментарий, если Вы скачали ОА через торрент бесплатно! Внесите свою лепту в развитие PiratBit!
    Комментировать посты могут только пользователи прошедшие не сложную регистрацию
    Показать сообщения:    

    ОА через торрент
    Скачать бесплатно ОА
    ОА скачать торрент
    ОА смотреть онлайн
    Cкачать фильм ОА бесплатно
    ОА скачать торрент в хорошем качестве
    ОА смотреть онлайн бесплатно в хорошем качестве


    Вы не можете начинать темы
    Вы не можете отвечать на сообщения
    Вы не можете редактировать свои сообщения
    Вы не можете удалять свои сообщения
    Вы не можете голосовать в опросах
    Вы не можете прикреплять файлы к сообщениям
    Вы можете скачивать файлы