Ссылка на приватное зеркало нашего сайта всего за 1$. Внимание количество ограничено!!!

2 сезон

iTunes

1 сезон

1

2 сезон

2 сезон

iTunes

1 сезон

RePack

30

Ultimate

ВАЖНО

ИГРА 18+

pack

RePack

MK11
pack

Забери бонус

RePack

jed

!!Акция!!

Alien_Rage

RePack

fifa19

RePack

Assassins Creed: Odyssey

RePack

NEED FOR SPEED™ PAYBACK

4 сезон

9 сезон

Бесстыжие 9 сезон

Все сериалы

все сериалы на PB.wtf

RePack

FAR CRY 5
  

Невинные / The Innocents / Сезон: 1 / Серии: 1-8 из 8 (Фэррен Блэкберн, Джеми Донахью) [2018, триллер, фантастика, криминал, WEBRip 720p] MVO [Jaskier] pb.wtf

Невинные через торрент pb.wtf

Размер: 5.45 GB | Добавлен: 2 года 2 мес. назад | Торрент скачан:32 раза
Скачать  

04-09-2018 17:55 Невинные Скачать торрент  

Невинные / The Innocents

Год выпуска: 2018
Страна: США
Жанр: триллер, фантастика, криминал,
Продолжительность: ~ 00:50:00
Перевод: Профессиональный (многоголосый закадровый) | Jaskier
Субтитры: отсутствуют

Режиссёр: Фэррен Блэкберн, Джеми Донахью

В ролях:

Сорча Граундселл, Гай Пирс, Йоуханнес Хёйкьюр Йоуханнессон, Лаура Бирн, Сэм Хэзелдайн, Артур Хьюз, Надин Маршалл, Лизе Рисом Олсен, Ингунн Беате Ёйен

Описание:

Быть подростком непросто, а если ты ещё и оборотень, взросление превращается в натуральный кошмар. 16-летняя Джун сбегает со своим бойфрендом из-под надзора строгого отца. Однако девушка не зря находилась под присмотром: она ещё не очень хорошо контролирует свои способности. Может быть, ей поможет профессор Халворсон…

rating

Качество: WEBRip 720p
Формат: MKV

Видео: X264, ~ 1600 kbps, 1280x720 (16:9), 24.000 fps
Аудио: AC3, 48,0 КГц, 6 ch, 384 kbps - Rus


Реклама: аудио, два раза в начале и в конце по 13 секунд
Общее
Уникальный идентификатор : 171951647939668343535991409061277829414 (0x815CAECA5DED6B668C4EAF2ECAED8926)
Полное имя : V:\arhiv\The Innocents. Season 1 (WEB l 720p l Jaskier)\The.Innocents.S01E01.720p.Jaskier.mkv
Формат : Matroska
Версия формата : Version 2
Размер файла : 627 Мбайт
Продолжительность : 45 м.
Режим общего битрейта : Переменный
Общий поток : 1912 Кбит/сек
Дата кодирования : UTC 2018-09-04 15:29:15
Программа кодирования : mkvmerge v7.8.0 ('River Man') 32bit built on Apr 3 2015 12:11:22
Библиотека кодирования : libebml v1.3.1 + libmatroska v1.4.2

Видео
Идентификатор : 1
Формат : AVC
Формат/Информация : Advanced Video Codec
Профиль формата : Main@L3.1
Параметр CABAC формата : Да
Параметр ReFrames формата : 3 кадра
Идентификатор кодека : V_MPEG4/ISO/AVC
Продолжительность : 45 м.
Вид битрейта : Переменный
Битрейт : 1540 Кбит/сек
Максимальный битрейт : 2310 Кбит/сек
Ширина : 1280 пикселей
Высота : 720 пикселей
Соотношение сторон : 16:9
Режим частоты кадров : Постоянный
Частота кадров : 24,000 кадра/сек
Цветовое пространство : YUV
Субдискретизация насыщенности : 4:2:0
Битовая глубина : 8 бит
Тип развёртки : Прогрессивная
Бит/(Пиксели*Кадры) : 0.070
Размер потока : 489 Мбайт (78%)
Библиотека кодирования : x264 core 148 r2715 7e75228
Настройки программы : cabac=1 / ref=3 / deblock=1:0:0 / analyse=0x1:0x111 / me=umh / subme=10 / psy=1 / psy_rd=1.00:0.00 / mixed_ref=1 / me_range=24 / chroma_me=1 / trellis=2 / 8x8dct=0 / cqm=0 / deadzone=21,11 / fast_pskip=1 / chroma_qp_offset=-2 / threads=8 / lookahead_threads=1 / sliced_threads=0 / nr=0 / decimate=1 / interlaced=0 / bluray_compat=0 / stitchable=1 / constrained_intra=0 / bframes=2 / b_pyramid=0 / b_adapt=2 / b_bias=0 / direct=3 / weightb=1 / open_gop=0 / weightp=2 / keyint=48 / keyint_min=25 / scenecut=0 / intra_refresh=0 / rc_lookahead=48 / rc=2pass / mbtree=1 / bitrate=1540 / ratetol=1.0 / qcomp=0.50 / qpmin=6 / qpmax=51 / qpstep=4 / cplxblur=20.0 / qblur=0.5 / vbv_maxrate=2310 / vbv_bufsize=3080 / nal_hrd=vbr / filler=0 / ip_ratio=1.40 / aq=1:1.00
Default : Да
Forced : Нет

Аудио
Идентификатор : 2
Формат : AC-3
Формат/Информация : Audio Coding 3
Расширение режима : CM (complete main)
Параметр Endianness формата : Big
Идентификатор кодека : A_AC3
Продолжительность : 45 м.
Вид битрейта : Постоянный
Битрейт : 384 Кбит/сек
Каналы : 6 каналов
Расположение каналов : Front: L C R, Side: L R, LFE
Частота : 48,0 КГц
Частота кадров : 31,250 кадров/сек (1536 spf)
Метод сжатия : С потерями
Размер потока : 126 Мбайт (20%)
Заголовок : Jaskier
Язык : Russian
Default : Да
Forced : Нет
скриншот  скриншот  скриншот  
Когда раздача ведётся путём добавления новых серий, при каждом добавлении создётся новый торрент. Чтобы начать докачку новой серии, пользователям необходимо сделать следующее:
(1) остановить скачивание,
(2) удалить старый торрент у себя из клиента (старые серии удалять не надо),
(3) скачать новый торрент и запустить его у себя в клиенте вместо старого, при этом указать клиенту путь в старую папку, куда и должно происходить скачивание новых серий.
Ваш клиент при этом должен произвести хеширование (проверку) старой папки (если не производит сам - помогите ему сделать это), и будет докачивать только те серии, которых у вас ещё нет. Старые серии при этом не удаляются, а продолжают раздаваться!
Eсли вы уже удалили старые серии, то предотвратить повторную закачку старых серий можно, отжав галочку в соответсвующих местах при запуске нового торрента. По возможности, желательно не удалять старые серии как можно дольше, чтобы релизёр не столько продолжал раздавать старые серии, а смог сконцентрироваться на новых.
pb.wtf



Скачать Невинные через торрент http://i100.fastpic.ru/big/2018/0904/82/c8643db75b91457b158b1f4db10def82.png Скачать фильм Невинные через торрент бесплантно в хорошем качестве Описание: Быть подростком непросто, а если ты ещё и оборотень, взросление превращается в натуральный кошмар. 16-летняя Джун сбегает со ... 10 10 5
Торрент: Зарегистрирован [2018-09-04 17:55] · скачан: 32 раз
Статус: √ проверено
Размер: 5.45 GB
Как cкачать? Как скачать Невинные через торрент | qTorrent

% Раздел Тема Автор DL S | L
Зарубежные сериалы [ 5.46 GB ] Невинные / The Innocents / Сезон: 1 / Серии: 1-8 из 8 [2018 WEB-DLRip] MVO [LostFilm] bober100 Скачать
1 | 0
Зарубежные сериалы [ 52.61 GB ] Невинные / The Innocents / Сезон: 1 / Серии: 1-8 из 8 [2018 WEBRip 2160p] [HDR] 2xMVO [LostFilm Baibako] bober100 Скачать
1 | 0
Зарубежные сериалы [ 4.36 GB ] Невинные / The Innocents / Сезон: 1 / Серии: 1-8 из 8 [2018 WEBRip] MVO [Jaskier] bober100 Скачать
1 | 0
Зарубежные сериалы [ 4.67 GB ] Невинные / The Innocents / Сезон: 1 / Серии 1-8 из 8 [2018 WEBRip] MVO [BaibaKo] GEKADOL Скачать
1 | 0
Зарубежные сериалы [ 7.63 GB ] Невинные / The Innocents / Сезон: 1 / Серии 1-8 из 8 [2018 WEBRip 720p] [DVO] killermax2013 Скачать
1 | 0
Зарубежные сериалы [ 13.99 GB ] Невинные / The Innocents / Сезон: 1 / Серии 1-8 из 8 [2018 WEB-DL 1080p] [MVO] killermax2013 Скачать
1 | 0

28-11-2019 20:33  

Отключить всю рекламу на сайте

    Дорогой пользователь! Огромная просьба, поблагодарите релизера, оцените раздачу и оставьте свои комментарий, если Вы скачали Невинные через торрент бесплатно! Внесите свою лепту в развитие PiratBit!
    Комментировать посты могут только пользователи прошедшие не сложную регистрацию
    Показать сообщения:    

    Невинные через торрент
    Скачать бесплатно Невинные
    Невинные скачать торрент
    Невинные смотреть онлайн
    Cкачать фильм Невинные бесплатно
    Невинные скачать торрент в хорошем качестве
    Невинные смотреть онлайн бесплатно в хорошем качестве


    Вы не можете начинать темы
    Вы не можете отвечать на сообщения
    Вы не можете редактировать свои сообщения
    Вы не можете удалять свои сообщения
    Вы не можете голосовать в опросах
    Вы не можете прикреплять файлы к сообщениям
    Вы можете скачивать файлы