Ссылка на приватное зеркало нашего сайта всего за 1$. Внимание количество ограничено!!!

2 сезон

iTunes

1 сезон

1

iTunes

iTunes

iTunes

1 сезон

RePack

30

ИГРА 18+

pack

ВАЖНО

!!Акция!!

Alien_RageХит недели

RePack

MK11
pack

Забери бонус

RePack

jed

!!Акция!!

Alien_Rage

RePack

fifa19

RePack

Assassins Creed: Odyssey

RePack

NEED FOR SPEED™ PAYBACK

4 сезон

9 сезон

Бесстыжие 9 сезон

Все сериалы

все сериалы на PB.wtf

RePack

FAR CRY 5
  

Старожил (Искандер Хамраев) [1961, СССР, детский, комедия, VHSRip-AVC от AVP Studio] pb.wtf

Старожил через торрент pb.wtf

Размер: 1.09 GB | Добавлен: 2 года 1 мес. назад | Торрент скачан:13 раз
Скачать  

05-09-2018 08:42 Старожил Скачать торрент  

Старожил
Страна: СССР
Производство: Ленфильм

Жанр: детский, комедия
Год выпуска: 1961
Продолжительность: 01:12:14

Перевод: Не требуется
Cубтитры: нет
Оригинальная аудиодорожка: русский

Режиссер: Искандер Хамраев

В ролях:
Виктор Перевалов, Толя Архипов, Миша Екимов, Валя Нехнаева, Саша Арцимович, Валентина Романова, Нелли Лазарева, Николай Харитонов...
Об актёрах подробней

Описание:
Андрей Крутиков (Виктор Перевалов) был первым ребенком, родившимся в поселке строителей гидростанции. И жители поселка назвали улицу его именем. Шли годы, рос молодой город. Вырос и Андрей — озорником, вруном и страшным выдумщиком. Но вот в его классе появился новый мальчик, Боря Скалов. Невольно Андрей начал подражать серьезному ответственному Борису, и сам не заметил, что жизнь его стала меняться.

Исходник: VHS
Качество видео: VHSRip-AVC
Формат видео: MKV

Видео: 716->760x570 (4:3), 25,000 кадров/сек, H264 ~ 1964 kbps avg, 0.192 bit/pixel
Аудио: 48 kHz, Dolby Digital AC3 2.0, 192 kbps

Раздача от:
Общее
Полное имя : Starozhil.1961.VHSRip-AVC_[New-team]_by_AVP_Studio.mkv
Формат : Matroska
Версия формата : Version 2
Размер файла : 1,09 Гбайт
Продолжительность : 1 ч. 12 м.
Общий поток : 2157 Кбит/сек
Дата кодирования : UTC 2018-08-31 18:50:29
Программа кодирования : mkvmerge v6.1.0 ('Old Devil') built on Mar 4 2013 09:10:42
Библиотека кодирования : libebml v1.3.0 + libmatroska v1.4.0

Видео
Идентификатор : 1
Формат : AVC
Формат/Информация : Advanced Video Codec
Профиль формата : High@L4.1
Настройки формата : CABAC / 10 Ref Frames
Параметр CABAC формата : Да
Параметр RefFrames формата : 10 кадров
Идентификатор кодека : V_MPEG4/ISO/AVC
Продолжительность : 1 ч. 12 м.
Битрейт : 1964 Кбит/сек
Ширина : 716 пикселей
Высота : 570 пикселей
Соотношение сторон : 4:3
Режим частоты кадров : Постоянный
Частота кадров : 25,000 кадров/сек
Цветовое пространство : YUV
Субдискретизация насыщенности : 4:2:0
Битовая глубина : 8 бит
Тип развёртки : Прогрессивная
Бит/(Пиксели*Кадры) : 0.192
Размер потока : 993 Мбайт (89%)
Библиотека кодирования : x264 core 157 r2932 303c484
Настройки программы : cabac=1 / ref=10 / deblock=1:-2:-1 / analyse=0x3:0x113 / me=umh / subme=10 / psy=1 / psy_rd=1.00:0.00 / mixed_ref=1 / me_range=32 / chroma_me=1 / trellis=2 / 8x8dct=1 / cqm=0 / deadzone=21,11 / fast_pskip=1 / chroma_qp_offset=-2 / threads=6 / lookahead_threads=1 / sliced_threads=0 / nr=0 / decimate=0 / interlaced=0 / bluray_compat=0 / constrained_intra=0 / bframes=8 / b_pyramid=2 / b_adapt=2 / b_bias=0 / direct=3 / weightb=1 / open_gop=0 / weightp=2 / keyint=250 / keyint_min=25 / scenecut=40 / intra_refresh=0 / rc=2pass / mbtree=0 / bitrate=1964 / ratetol=1.0 / qcomp=0.60 / qpmin=0 / qpmax=69 / qpstep=4 / cplxblur=20.0 / qblur=0.5 / ip_ratio=1.40 / pb_ratio=1.30 / aq=1:1.00
Default : Да
Forced : Нет

Аудио
Идентификатор : 2
Формат : AC-3
Формат/Информация : Audio Coding 3
Коммерческое название : Dolby Digital
Идентификатор кодека : A_AC3
Продолжительность : 1 ч. 12 м.
Вид битрейта : Постоянный
Битрейт : 192 Кбит/сек
Каналы : 2 канала
Channel layout : L R
Частота : 48,0 КГц
Частота кадров : 31,250 кадров/сек (1536 SPF)
Битовая глубина : 16 бит
Метод сжатия : С потерями
Размер потока : 99,2 Мбайт (9%)
Default : Да
Forced : Нет
pb.wtf



Скачать Старожил через торрент http://picplus.ru/img/1809/05/78e62bcb.png Скачать фильм Старожил через торрент бесплантно в хорошем качестве Описание:Андрей Крутиков (Виктор Перевалов) был первым ребенком, родившимся в поселке строителей гидростанции. И жители поселка назвали ... 10 10 1
Info! Золотая раздача, скачанное не засчитывается.
Торрент: Зарегистрирован [2018-09-05 08:42] · скачан: 13 раз
Статус: √ проверено
Размер: 1.09 GB
Как cкачать? Как скачать Старожил через торрент | qTorrent

% Раздел Тема Автор DL S | L
Детские отечественные фильмы [ 746 MB ] Старожил [1961 СССР детский VHSRip от AVP Studio] AVP Studio Скачать
1 | 0

28-11-2019 20:33  

Отключить всю рекламу на сайте

05-09-2018 10:17 Старожил Скачать торрент  

Топик был перенесен из форума Кино СССР в форум Детские отечественные фильмы


bober100pb.wtf



    Дорогой пользователь! Огромная просьба, поблагодарите релизера, оцените раздачу и оставьте свои комментарий, если Вы скачали Старожил через торрент бесплатно! Внесите свою лепту в развитие PiratBit!
    Комментировать посты могут только пользователи прошедшие не сложную регистрацию
    Показать сообщения:    

    Старожил через торрент
    Скачать бесплатно Старожил
    Старожил скачать торрент
    Старожил смотреть онлайн
    Cкачать фильм Старожил бесплатно
    Старожил скачать торрент в хорошем качестве
    Старожил смотреть онлайн бесплатно в хорошем качестве


    Вы не можете начинать темы
    Вы не можете отвечать на сообщения
    Вы не можете редактировать свои сообщения
    Вы не можете удалять свои сообщения
    Вы не можете голосовать в опросах
    Вы не можете прикреплять файлы к сообщениям
    Вы можете скачивать файлы