Ссылка на приватное зеркало всего за 1$. Внимание количество ограничено!!!

iTunes

iTunes

iTunes

1

iTunes

iTunes

iTunes

iTunes

iTunes

30
pack

$ от Little Big

ВАЖНО

!!Акция!!

Alien_RageХит недели

RePack

Resident Evil 21

ИГРА 18+

pack

RePack

jed

!!Акция!!

Alien_Rage

RePack

fifa19

RePack

Assassins Creed: Odyssey

RePack

NEED FOR SPEED™ PAYBACK

4 сезон

9 сезон

Бесстыжие 9 сезон

Все сериалы

все сериалы на PB.wtf

RePack

FAR CRY 5
  

Заклятие Велеса (Сергей Задорин) [2015, драма, фантастика, WEB-DLRip-AVC] pb.wtf

Заклятие Велеса через торрент pb.wtf

Качают: 1 [ 0 KB/s ]
Размер: 2.8 GB | Добавлен: 1 год 8 мес. назад | Торрент скачан:71 раз
Скачать  

05-09-2018 08:52 Заклятие Велеса Скачать торрент  

Заклятие ВелесаГод выпуска: 2015
Страна: Россия
Жанр: драма, фантастика
Продолжительность: 02:14:52
Субтитры: отсутствуют

Режиссер: Сергей Задорин



В ролях:

Николай Викторов, Зоя Андрианова, Владимир Ульянов, Сергей Тюсов, Наталия Мажорова, Андрей Шарынин, Светлана Андреас, Александр Захаров

Описание:

Травля язычников продолжается… Архиепископ Новгородский Пимен Черный, сторонник первого царя всея Руси Ивана Грозного, не щадит приверженцев старой веры, посылая всех иноверов на костер! На этот раз ему не повезло — закованная и истерзанная ведьма исчезает прямо с казни на глазах у изумленной толпы, ее муж — травник Тихон, во время допроса демонстрирует чудо бесследного исчезновения, прихватив с собой сослужителя Пимена — дьякона. Причина побега ясна — страх перед смертью, но что же случилось с беглецами?

Качество: WEB-DLRip-AVC
Формат: MKV

Видео: AVC, 2600 Кбит/сек, 1024x576
Аудио: AC3, 2 ch, 384 Кбит/сек
скриншот  скриншот  скриншот  скриншот  скриншот  

Общее
Уникальный идентификатор : 110773832246059288964904259703827789738 (0x53564399496DA6F132FFFB32B2EAF7AA)
Полное имя : F:\Диск\02. ФИЛЬМЫ СНГ\Заклятие Велеса (2015) WEB-DL 720р\Zaklyatie Velesa (2015).mkv
Формат : Matroska
Версия формата : Version 4 / Version 2
Размер файла : 2,80 Гбайт
Продолжительность : 2 ч. 14 м.
Общий поток : 2969 Кбит/сек
Программа кодирования : XviD4PSP 7.0.456 DAILY
Библиотека кодирования : Lavf57.71.100
Примечание : Rip by Basma4i&TorrNADO
ErrorDetectionType : Per level 1
Attachments : poster.jpg
ENCODING_INFO : MATROSKA,WEBM > MKV Пользовательский / VP9 > X264 ABR 2600kbps HQ / VORBIS > AC3 CBR 384kbps
Язык : und

Видео
Идентификатор : 1
Формат : AVC
Формат/Информация : Advanced Video Codec
Профиль формата : High@L4.1
Настройки формата : CABAC / 9 Ref Frames
Параметр CABAC формата : Да
Параметр RefFrames формата : 9 кадров
Идентификатор кодека : V_MPEG4/ISO/AVC
Продолжительность : 2 ч. 14 м.
Битрейт : 2600 Кбит/сек
Ширина : 1024 пикселя
Высота : 576 пикселей
Соотношение сторон : 16:9
Режим частоты кадров : Постоянный
Частота кадров : 23,976 (24000/1001) кадра/сек
Цветовое пространство : YUV
Субдискретизация насыщенности : 4:2:0
Битовая глубина : 8 бит
Тип развёртки : Прогрессивная
Бит/(Пиксели*Кадры) : 0.184
Размер потока : 2,38 Гбайт (85%)
Библиотека кодирования : x264 core 155 r2901M 7d0ff22
Настройки программы : cabac=1 / ref=9 / deblock=1:-3:-3 / analyse=0x3:0x133 / me=umh / subme=9 / psy=1 / psy_rd=1.00:0.20 / mixed_ref=1 / me_range=16 / chroma_me=1 / trellis=2 / 8x8dct=1 / cqm=0 / deadzone=21,11 / fast_pskip=1 / chroma_qp_offset=-3 / threads=10 / lookahead_threads=1 / sliced_threads=0 / nr=0 / decimate=1 / interlaced=0 / bluray_compat=0 / constrained_intra=0 / bframes=8 / b_pyramid=2 / b_adapt=1 / b_bias=8 / direct=1 / weightb=1 / open_gop=0 / weightp=1 / keyint=240 / keyint_min=24 / scenecut=40 / intra_refresh=0 / rc_lookahead=40 / rc=abr / mbtree=1 / bitrate=2600 / ratetol=1.0 / qcomp=0.60 / qpmin=0 / qpmax=69 / qpstep=4 / ip_ratio=1.40 / aq=1:1.00
Default : Да
Forced : Нет
Цветовой диапазон : Limited
Основные цвета : BT.709
Характеристики трансфера : BT.709
Коэффициенты матрицы : BT.709

Аудио
Идентификатор : 2
Формат : AC-3
Формат/Информация : Audio Coding 3
Идентификатор кодека : A_AC3
Продолжительность : 2 ч. 14 м.
Вид битрейта : Постоянный
Битрейт : 384 Кбит/сек
Каналы : 2 канала
Расположение каналов : Front: L R
Частота : 48,0 КГц
Частота кадров : 31,250 кадров/сек (1536 SPF)
Битовая глубина : 16 бит
Метод сжатия : С потерями
Размер потока : 370 Мбайт (13%)
ServiceKind/String : Complete Main
Default : Да
Forced : Нет

pb.wtf



Скачать Заклятие Велеса через торрент http://i67.fastpic.ru/big/2016/0119/7a/f3b6f98dc968970d76ea3c7e97d5087a.jpg Скачать фильм Заклятие Велеса через торрент бесплантно в хорошем качестве Описание: Травля язычников продолжается… Архиепископ Новгородский Пимен Черный, сторонник первого царя всея Руси Ивана Грозного, не щадит ... 7.4 10 7
Info! Золотая раздача, скачанное не засчитывается.
Торрент: Зарегистрирован [2018-09-05 08:52] · скачан: 71 раз
Статус: T временная
Размер: 2.8 GB
Как cкачать? Как скачать Заклятие Велеса через торрент | qTorrent

% Раздел Тема Автор DL S | L
National Geographic [ 2.13 GB ] Заклятые враги. Кошки против собак / Ultimate rivals. Cat vs Dog [2015 Документальный научно-популярный фауна флора HDTVRip 1080p ] Armstrong Скачать
1 | 0

28-11-2019 20:33  

Отключить всю рекламу на сайте

    Дорогой пользователь! Огромная просьба, поблагодарите релизера, оцените раздачу и оставьте свои комментарий, если Вы скачали Заклятие Велеса через торрент бесплатно! Внесите свою лепту в развитие PiratBit!
    Комментировать посты могут только пользователи прошедшие не сложную регистрацию
    Показать сообщения:    

    Заклятие Велеса через торрент
    Скачать бесплатно Заклятие Велеса
    Заклятие Велеса скачать торрент
    Заклятие Велеса смотреть онлайн
    Cкачать фильм Заклятие Велеса бесплатно
    Заклятие Велеса скачать торрент в хорошем качестве
    Заклятие Велеса смотреть онлайн бесплатно в хорошем качестве


    Вы не можете начинать темы
    Вы не можете отвечать на сообщения
    Вы не можете редактировать свои сообщения
    Вы не можете удалять свои сообщения
    Вы не можете голосовать в опросах
    Вы не можете прикреплять файлы к сообщениям
    Вы можете скачивать файлы