Ссылка на приватное зеркало всего за 1$. Внимание количество ограничено!!!

OK

1+1

iTunes

мы

OK

1

WEB-DLRip

Джокер

Пифагор

Ведьмак / The Witcher сериал

Лицензия

ПШазам

ОК

Оно 2

iTunes

30
pack

Вам бонус

ВАЖНО

!!Акция!!

Alien_RageХит недели

RePack

Resident Evil 21

ИГРА 18+

pack

RePack

jed

RePack

fifa19

RePack

Assassins Creed: Odyssey

RePack

NEED FOR SPEED™ PAYBACK

4 сезон

9 сезон

Бесстыжие 9 сезон

Все сериалы

все сериалы на PB.wtf

RePack

FAR CRY 5
  

Полуночники / Midnighters (Джулиус Рамсей) [2017, триллер, BDRip 720p] MVO ["Синема УС"] pb.wtf

Полуночники через торрент pb.wtf

Размер: 4.82 GB | Добавлен: 1 год 4 мес. назад | Торрент скачан:64 раза
Скачать  

05-09-2018 11:11 Полуночники Скачать торрент  

Полуночники / Midnighters
Год выпуска: 2017
Страна: США
Жанр: триллер
Продолжительность: 01:36:19
Перевод: Любительский (многоголосый) | "Синема УС"
Субтитры: отсутствуют

Режиссер: Джулиус Рамсей

rating

В ролях:

Александра Эссоу (Lindsey), Перла Аней-Жардине (Hannah), Дилан МакТи (Jeff), Уорд Хортон (Smith), Эндрю Ротенберг (Officer Verone), Джозеф Андерсон (Officer Campbell), К.С. Фальдаш (Vic), Уильям Блумфилд (Hotel Attendant), David Spadora (Mike), Matt Myers (Singer), Ральф Петрарка (Announcer), Bob DeCurtis (Motorcycle Driver)

Описание:

В канун нового года молодая пара случайно сбивает человека. Не вызывая скорой помощи и полиции, они забирают его с собой, чтобы избежать неприятностей со стороны закона.

Качество: BDRip 720p
Формат: MKV

Видео: h.264, 6 715 kb/s, 1280x534
Аудио: Русский, (AC3, 2 ch, 448 Кбит/с)
скриншот  скриншот  скриншот  

Общее
Уникальный идентификатор : 195782488100921064507891113225631818796 (0x934A55ECA2ABBCF2B36848FEE87BE42C)
Полное имя : D:\Midnighters.2O17.P.BDRip.72Op_KOSHARA.mkv
Формат : Matroska
Версия формата : Version 2
Размер файла : 4,82 Гбайт
Продолжительность : 1 ч. 36 м.
Режим общего битрейта : Переменный
Общий поток : 7165 Кбит/сек
Дата кодирования : UTC 2018-09-04 18:41:40
Программа кодирования : mkvmerge v8.3.0 ('Over the Horizon') 64bit
Библиотека кодирования : libebml v1.3.1 + libmatroska v1.4.2

Видео
Идентификатор : 1
Формат : AVC
Формат/Информация : Advanced Video Codec
Профиль формата : High@L4.1
Параметр CABAC формата : Да
Параметр RefFrames формата : 4 кадра
Идентификатор кодека : V_MPEG4/ISO/AVC
Продолжительность : 1 ч. 36 м.
Вид битрейта : Переменный
Битрейт : 6715 Кбит/сек
Максимальный битрейт : 7400 Кбит/сек
Ширина : 1280 пикселей
Высота : 534 пикселя
Соотношение сторон : 2,40:1
Режим частоты кадров : Постоянный
Частота кадров : 23,976 (24000/1001) кадра/сек
Стандарт вещания : Component
Цветовое пространство : YUV
Субдискретизация насыщенности : 4:2:0
Битовая глубина : 8 бит
Тип развёртки : Прогрессивная
Бит/(Пиксели*Кадры) : 0.401
Размер потока : 4,42 Гбайт (92%)
Default : Да
Forced : Нет
Цветовой диапазон : Limited
Основные цвета : BT.709
Характеристики трансфера : BT.709
Коэффициенты матрицы : BT.709

Аудио
Идентификатор : 2
Формат : AC-3
Формат/Информация : Audio Coding 3
Расширение режима : CM (complete main)
Параметр Endianness формата : Big
Идентификатор кодека : A_AC3
Продолжительность : 1 ч. 36 м.
Вид битрейта : Постоянный
Битрейт : 448 Кбит/сек
Каналы : 2 канала
Расположение каналов : Front: L R
Частота : 48,0 КГц
Частота кадров : 31,250 кадров/сек (1536 spf)
Метод сжатия : С потерями
Размер потока : 309 Мбайт (6%)
Default : Да
Forced : Нет

pb.wtf



Скачать Полуночники через торрент https://b.radikal.ru/b00/1809/6b/367153a11d2f.jpg Скачать фильм Полуночники через торрент бесплантно в хорошем качестве Описание: В канун нового года молодая пара случайно сбивает человека. Не вызывая скорой помощи и полиции, они забирают его с собой, чтобы ... 10 10 3
Торрент: Зарегистрирован [2018-09-05 11:11] · скачан: 64 раз
Статус: T временная
Размер: 4.82 GB
Как cкачать? Как скачать Полуночники через торрент | qTorrent

% Раздел Тема Автор DL S | L
T Фильмы (мультфильмы) cо спонсором показа (Новинки AVI/MKV) [ 1.33 GB ] Полуночники / Midnighters [2017 HDRip] MVO ["Синема УС"] bober100 Скачать
2 | 0
T Фильмы [HD 720p, 1080p] (Звук Cam, VO, DVO) [ 7.46 GB ] Полуночники / Midnighters [2017 BDRip 1080p] DVO [HiWay Grope] -Lexx- Скачать
1 | 0

28-11-2019 20:33  

Отключить всю рекламу на сайте

    Дорогой пользователь! Огромная просьба, поблагодарите релизера, оцените раздачу и оставьте свои комментарий, если Вы скачали Полуночники через торрент бесплатно! Внесите свою лепту в развитие PiratBit!
    Комментировать посты могут только пользователи прошедшие не сложную регистрацию
    Показать сообщения:    

    Полуночники через торрент
    Скачать бесплатно Полуночники
    Полуночники скачать торрент
    Полуночники смотреть онлайн
    Cкачать фильм Полуночники бесплатно
    Полуночники скачать торрент в хорошем качестве
    Полуночники смотреть онлайн бесплатно в хорошем качестве


    Вы не можете начинать темы
    Вы не можете отвечать на сообщения
    Вы не можете редактировать свои сообщения
    Вы не можете удалять свои сообщения
    Вы не можете голосовать в опросах
    Вы не можете прикреплять файлы к сообщениям
    Вы можете скачивать файлы