новый адрес
Ссылка на приватное зеркало всего за 1$. Внимание количество ограничено!!!

iTunes

1+1

iTunes

мы

WEB-DL

1

iTunes

Чернобыль

iTunes

Ральф против интернета

Лицензия

ПШазам

Лицензия

Оно 2

Лицензия

30
pack

Вам бонус

ВАЖНО

!!Акция!!

Alien_RageХит недели

RePack

Resident Evil 21

ИГРА 18+

pack

RePack

jed

!!Акция!!

Alien_Rage

RePack

fifa19

RePack

Assassins Creed: Odyssey

RePack

NEED FOR SPEED™ PAYBACK

3 сезон

9 сезон

Бесстыжие 9 сезон

Все сериалы

все сериалы на PB.wtf

RePack

FAR CRY 5
Ребята, катастрофически не хватает 1900р. для оплаты серверов за Октябрь (всвязи с блокировками трафик упал в 3 раза), 1-2р., выручайте.
  

Офисный беспредел / Office Uprising (Лин Одинг) [2018, ужасы, боевик, комедия, WEB-DLRip] DUB (rus, ukr) [iTunes] pb.wtf

Офисный беспредел через торрент pb.wtf

Раздают: 5 [ 0 KB/s ]
Размер: 1.46 GB | Добавлен: 1 год 3 мес. назад | Торрент скачан:2495 раз
Скачать  

05-09-2018 13:02 Офисный беспредел Скачать торрент  

Офисный беспредел / Office Uprising
Год выпуска: 2018
Страна: США
Жанр: ужасы, боевик, комедия
Продолжительность: 01:24:59
Перевод: Дублированный | iTunes
Субтитры: отсутствуют

Режиссер: Лин Одинг

rating

В ролях:

Брентон Туэйтс, Джейн Леви, Каран Сони, Закари Ливай, Грегг Генри, Курт Фуллер, Йен Хардинг, Сэм Дэйли, Алан Ричсон, Кори Уинстон

Описание:

Глава крупной корпорации, мечтая о нечеловеческой работоспособности своих менеджеров, напоил их секретным энергетическим напитком. Однако босс не ожидал побочного эффекта - подчиненные стали гиперагрессивными. И лишь один раздолбай, как обычно опоздав на работу, остался без порции энергетика. Теперь ему предстоит пережить настоящий офисный беспредел...

Качество: WEB-DLRip
Формат: AVI

Видео: Xvid 73, 720x304, ~1867 kbps, 25,000 fps
Аудио#1: русский, AC3, 5.1 ch, 48 kHz, 384 kbps | дубляж iTunes
Аудио#2: украинский, AC3, 2.0 ch, 48 kHz, 192 kbps | дубляж iTunes
скриншот   скриншот   скриншот   скриншот   скриншот  

General
Полное имя : F:TorrentOfisnijBespredelWEB-DLRip.avi
Формат : AVI
Формат/Информация : Audio Video Interleave
Профиль формата : OpenDML
Размер файла : 1.46 GiB
Продолжительность : 1 h 24 min
Общий поток : 2 462 kb/s
Программа кодирования : XviD4PSP 6.0 / 54.27.101

Video
Идентификатор : 0
Формат : MPEG-4 Visual
Профиль формата : Advanced Simple@L5
Настройки формата : BVOP2 / Custom Matrix
Параметр BVOP формата : 2
Параметр QPel формата : No
Параметр GMC формата : No warppoints
Параметр матрицы формата : Custom
Идентификатор кодека : XVID
Идентификатор кодека/Подсказка : XviD
Продолжительность : 1 h 24 min
Битрейт : 1 867 kb/s
Ширина : 720 pixels
Высота : 304 pixels
Соотношение сторон : 2.35:1
Частота кадров : 25.000 FPS
Цветовое пространство : YUV
Субдискретизация насыщенности : 4:2:0
Битовая глубина : 8 bits
Тип развёртки : Progressive
Метод сжатия : Lossy
Бит/(Пиксели*Кадры) : 0.341
Размер потока : 1.11 GiB (76%)
Библиотека кодирования : XviD 73

Audio #1
Идентификатор : 1
Формат : AC-3
Формат/Информация : Audio Coding 3
Идентификатор кодека : 2000
Продолжительность : 1 h 24 min
Вид битрейта : Constant
Битрейт : 384 kb/s
Каналы : 6 channels
Расположение каналов : Front: L C R, Side: L R, LFE
Частота : 48.0 kHz
Частота кадров : 31.250 FPS (1536 SPF)
Битовая глубина : 16 bits
Метод сжатия : Lossy
Размер потока : 233 MiB (16%)
Выравнивание : Aligned on interleaves
Продолжительность промежутка : 32 ms (0.80 video frame)

Audio #2
Идентификатор : 2
Формат : AC-3
Формат/Информация : Audio Coding 3
Идентификатор кодека : 2000
Продолжительность : 1 h 24 min
Вид битрейта : Constant
Битрейт : 192 kb/s
Каналы : 2 channels
Расположение каналов : Front: L R
Частота : 48.0 kHz
Частота кадров : 31.250 FPS (1536 SPF)
Битовая глубина : 16 bits
Метод сжатия : Lossy
Размер потока : 117 MiB (8%)
Выравнивание : Aligned on interleaves
Продолжительность промежутка : 32 ms (0.80 video frame)
pb.wtf



Скачать Офисный беспредел через торрент https://img11.lostpic.net/2018/07/24/3579134d03236c09318a74f53ba370ba.jpg Скачать фильм Офисный беспредел через торрент бесплантно в хорошем качестве Описание: Глава крупной корпорации, мечтая о нечеловеческой работоспособности своих менеджеров, напоил их секретным энергетическим ... 9.7 10 39
Info! Золотая раздача, скачанное не засчитывается.
Торрент: Зарегистрирован [2018-09-05 13:02] · скачан: 2 495 раз
Статус: √ проверено
Размер: 1.46 GB
Как cкачать? Как скачать Офисный беспредел через торрент | qTorrent

% Раздел Тема Автор DL S | L
Фильмы [HD 720p, 1080p] (Хороший звук DUB, MVO) [ 3.56 GB ] Офисный беспредел / Office Uprising [2018 BDRip 720p] DUB AVO Леонид Ильич Скачать
1 | 0
Фильмы 2018 [DVDrip, WEB-DLRip, HDrip] (DUB, MVO) [ 1.42 GB ] Офисный беспредел / Office Uprising [2018 BDRip] - Twi7ter Скачать
1 | 0
Фильмы 2018 [DVDrip, WEB-DLRip, HDrip] (DUB, MVO) [ 1.42 GB ] Офисный беспредел / Office Uprising [2018 BDRip] bober100 Скачать
1 | 0
Фильмы (Blu-ray, BD-Remux, HDDVD) [ 15.06 GB ] Офисный беспредел / Office Uprising [2018 BD Remux 1080p] DUB bober100 Скачать
1 | 0
Фильмы (WEB-DL 720p, 1080p) [ 3.27 GB ] Офисный беспредел / Office Uprising [2018 WEB-DL 1080p] DUB bober100 Скачать
2 | 0

28-11-2019 20:33  

Отключить всю рекламу на сайте

06-09-2018 13:57 Офисный беспредел Скачать торрент  

Что-то вроде "Хижины в лесу"pb.wtf



06-09-2018 14:08 Офисный беспредел Скачать торрент  

Эксперимент офис,что то из этой темыpb.wtf



06-09-2018 23:47 Офисный беспредел Скачать торрент  

Что то вроде не смотрел, из этой темы ))pb.wtf



07-09-2018 05:56 Офисный беспредел Скачать торрент  

Что то стремно смотреть наверное ночьюpb.wtf



08-09-2018 13:37 Офисный беспредел Скачать торрент  

Что то,совсем что то.pb.wtf



08-09-2018 21:41 Офисный беспредел Скачать торрент  

Что то с чем тоpb.wtf



09-09-2018 15:40 Офисный беспредел Скачать торрент  

редкий кал!pb.wtf



12-09-2018 13:25 Офисный беспредел Скачать торрент  

а мне понравился pb.wtf



15-09-2018 14:04 Офисный беспредел Скачать торрент  

Это просто пипец, такого говна я еще не видывал.pb.wtf



16-09-2018 12:14 Офисный беспредел Скачать торрент  

мы не знаем что это такое, если бы мы знали что это такое, но мы не что это такое!pb.wtf



    Дорогой пользователь! Огромная просьба, поблагодарите релизера, оцените раздачу и оставьте свои комментарий, если Вы скачали Офисный беспредел через торрент бесплатно! Внесите свою лепту в развитие PiratBit!
    Комментировать посты могут только пользователи прошедшие не сложную регистрацию
    Показать сообщения:    

    Офисный беспредел через торрент
    Скачать бесплатно Офисный беспредел
    Офисный беспредел скачать торрент
    Офисный беспредел смотреть онлайн
    Cкачать фильм Офисный беспредел бесплатно
    Офисный беспредел скачать торрент в хорошем качестве
    Офисный беспредел смотреть онлайн бесплатно в хорошем качестве


    Вы не можете начинать темы
    Вы не можете отвечать на сообщения
    Вы не можете редактировать свои сообщения
    Вы не можете удалять свои сообщения
    Вы не можете голосовать в опросах
    Вы не можете прикреплять файлы к сообщениям
    Вы можете скачивать файлы